Close Encounters of the Third Kind (1977) [Remastered]

Close Encounters of the Third Kind (1977) [Remastered]

Close Encounters of the Third Kind (1977)
BDRip 720p | MKV | 1280x536 | AVC@7610 kb/s | English DTS@1509 kb/s
Subs: English | 6 channels | 2 h 17 min | 8.74 GB
BDRip 1080p | MKV | 1920x808 | AVC@13.3 Mb/s | English DTS@1509 kb/s
Subs: English | 6 channels | 2 h 17 min | 12.2 GB
Genre: Drama, Sci-Fi

After an accidental encounter with otherworldly vessels, an ordinary man follows a series of psychic clues to the first scheduled meeting between representatives of Earth and visitors from the cosmos.

IMDB - Won 1 Oscar. Another 14 wins & 37 nominations.


General
Close.Encounters.of.the.Third.Kind.1977.DC.REMASTERED.720p.BluRay.X264-AMIABLE\Close.Encounters.of.the.Third.Kind.1977.DC.REMASTERED.720p.BluRay.X264-AMIABLE.mkv
Format : Matroska
Format version : Version 4 / Version 2
File size : 8.74 GiB
Duration : 2 h 17 min
Overall bit rate : 9 120 kb/s
Encoded date : UTC 2010-02-22 21:41:29
Writing application : no_variable_data
Writing library : no_variable_data

Video
ID : 1
Format : AVC
Format/Info : Advanced Video Codec
Format profile : High@L4.1
Format settings, CABAC : Yes
Format settings, ReFrames : 12 frames
Codec ID : V_MPEG4/ISO/AVC
Duration : 2 h 17 min
Bit rate : 7 610 kb/s
Width : 1 280 pixels
Height : 536 pixels
Display aspect ratio : 2.40:1
Frame rate mode : Constant
Frame rate : 23.976 (24000/1001) FPS
Color space : YUV
Chroma subsampling : 4:2:0
Bit depth : 8 bits
Scan type : Progressive
Bits/(Pixel*Frame) : 0.463
Stream size : 7.12 GiB (81%)
Writing library : x264 core 152 r2851 ba24899
Encoding settings : cabac=1 / ref=12 / deblock=1:-3:-3 / analyse=0x3:0x133 / me=umh / subme=10 / psy=1 / psy_rd=1.00:0.00 / mixed_ref=1 / me_range=32 / chroma_me=1 / trellis=2 / 8x8dct=1 / cqm=0 / deadzone=21,11 / fast_pskip=0 / chroma_qp_offset=-2 / threads=17 / lookahead_threads=2 / sliced_threads=0 / nr=0 / decimate=1 / interlaced=0 / bluray_compat=0 / constrained_intra=0 / bframes=8 / b_pyramid=2 / b_adapt=2 / b_bias=0 / direct=3 / weightb=1 / open_gop=0 / weightp=2 / keyint=240 / keyint_min=24 / scenecut=40 / intra_refresh=0 / rc_lookahead=60 / rc=2pass / mbtree=1 / bitrate=7610 / ratetol=1.0 / qcomp=0.60 / qpmin=0 / qpmax=69 / qpstep=4 / cplxblur=20.0 / qblur=0.5 / ip_ratio=1.30 / aq=3:0.75
Default : Yes
Forced : No
Statistics Tags Issue : no_variable_data 1970-01-01 00:00:00 / no_variable_data 2010-02-22 21:41:29
FromStats_BitRate : 7607939
FromStats_Duration : 02:17:14.226000000
FromStats_FrameCount : 197424
FromStats_StreamSize : 7830687146

Audio
ID : 2
Format : DTS
Format/Info : Digital Theater Systems
Mode : 16
Format settings, Endianness : Big
Codec ID : A_DTS
Duration : 2 h 17 min
Bit rate mode : Constant
Bit rate : 1 509 kb/s
Channel(s) : 6 channels
Channel positions : Front: L C R, Side: L R, LFE
Sampling rate : 48.0 kHz
Frame rate : 93.750 FPS (512 spf)
Bit depth : 24 bits
Compression mode : Lossy
Stream size : 1.45 GiB (17%)
Language : English
Default : Yes
Forced : No
Statistics Tags Issue : no_variable_data 1970-01-01 00:00:00 / no_variable_data 2010-02-22 21:41:29
FromStats_BitRate : 1508999
FromStats_Duration : 02:17:14.230000000
FromStats_FrameCount : 771959
FromStats_StreamSize : 1553181508

Text #1
ID : 3
Format : UTF-8
Codec ID : S_TEXT/UTF8
Codec ID/Info : UTF-8 Plain Text
Title : Forced
Language : English
Default : Yes
Forced : Yes
Statistics Tags Issue : no_variable_data 1970-01-01 00:00:00 / no_variable_data 2010-02-22 21:41:29
FromStats_BitRate : 1
FromStats_Duration : 00:35:41.097000000
FromStats_FrameCount : 7
FromStats_StreamSize : 364

Text #2
ID : 4
Format : UTF-8
Codec ID : S_TEXT/UTF8
Codec ID/Info : UTF-8 Plain Text
Language : English
Default : No
Forced : No
Statistics Tags Issue : no_variable_data 1970-01-01 00:00:00 / no_variable_data 2010-02-22 21:41:29
FromStats_BitRate : 42
FromStats_Duration : 02:11:00.435000000
FromStats_FrameCount : 1122
FromStats_StreamSize : 42177

Text #3
ID : 5
Format : UTF-8
Codec ID : S_TEXT/UTF8
Codec ID/Info : UTF-8 Plain Text
Title : SDH
Language : English
Default : No
Forced : No
Statistics Tags Issue : no_variable_data 1970-01-01 00:00:00 / no_variable_data 2010-02-22 21:41:29
FromStats_BitRate : 50
FromStats_Duration : 02:12:16.469000000
FromStats_FrameCount : 1451
FromStats_StreamSize : 50441

Menu
00:00:00.000 : en:00:00:00.000
00:14:41.380 : en:00:14:41.380
00:19:57.321 : en:00:19:57.321
00:24:07.404 : en:00:24:07.404
00:37:22.574 : en:00:37:22.574
00:48:38.791 : en:00:48:38.791
01:01:18.299 : en:01:01:18.299
01:19:32.601 : en:01:19:32.601
01:26:26.640 : en:01:26:26.640
01:34:00.093 : en:01:34:00.093
01:42:35.816 : en:01:42:35.816
01:45:42.377 : en:01:45:42.377
01:53:43.400 : en:01:53:43.400
01:57:49.729 : en:01:57:49.729
02:05:52.545 : en:02:05:52.545
02:11:32.426 : en:02:11:32.426

General
Close.Encounters.of.the.Third.Kind.1977.DC.REMASTERED.1080p.BluRay.X264-AMIABLE\Close.Encounters.of.the.Third.Kind.1977.DC.REMASTERED.1080p.BluRay.X264-AMIABLE.mkv
Format : Matroska
Format version : Version 4 / Version 2
File size : 14.2 GiB
Duration : 2 h 17 min
Overall bit rate : 14.8 Mb/s
Encoded date : UTC 2010-02-22 21:41:29
Writing application : no_variable_data
Writing library : no_variable_data

Video
ID : 1
Format : AVC
Format/Info : Advanced Video Codec
Format profile : High@L4.1
Format settings, CABAC : Yes
Format settings, ReFrames : 5 frames
Codec ID : V_MPEG4/ISO/AVC
Duration : 2 h 17 min
Bit rate : 13.3 Mb/s
Width : 1 920 pixels
Height : 808 pixels
Display aspect ratio : 2.40:1
Frame rate mode : Constant
Frame rate : 23.976 (24000/1001) FPS
Color space : YUV
Chroma subsampling : 4:2:0
Bit depth : 8 bits
Scan type : Progressive
Bits/(Pixel*Frame) : 0.358
Stream size : 12.5 GiB (88%)
Writing library : x264 core 152 r2851 ba24899
Encoding settings : cabac=1 / ref=5 / deblock=1:-3:-3 / analyse=0x3:0x133 / me=umh / subme=10 / psy=1 / psy_rd=1.00:0.00 / mixed_ref=1 / me_range=48 / chroma_me=1 / trellis=2 / 8x8dct=1 / cqm=0 / deadzone=21,11 / fast_pskip=0 / chroma_qp_offset=-2 / threads=24 / lookahead_threads=4 / sliced_threads=0 / nr=0 / decimate=1 / interlaced=0 / bluray_compat=0 / constrained_intra=0 / bframes=8 / b_pyramid=2 / b_adapt=2 / b_bias=0 / direct=3 / weightb=1 / open_gop=0 / weightp=2 / keyint=240 / keyint_min=24 / scenecut=40 / intra_refresh=0 / rc_lookahead=60 / rc=2pass / mbtree=1 / bitrate=13315 / ratetol=1.0 / qcomp=0.60 / qpmin=0 / qpmax=69 / qpstep=4 / cplxblur=20.0 / qblur=0.5 / ip_ratio=1.30 / aq=3:0.75
Default : Yes
Forced : No
Statistics Tags Issue : no_variable_data 1970-01-01 00:00:00 / no_variable_data 2010-02-22 21:41:29
FromStats_BitRate : 13311208
FromStats_Duration : 02:17:14.226000000
FromStats_FrameCount : 197424
FromStats_StreamSize : 13700937334

Audio
ID : 2
Format : DTS
Format/Info : Digital Theater Systems
Mode : 16
Format settings, Endianness : Big
Codec ID : A_DTS
Duration : 2 h 17 min
Bit rate mode : Constant
Bit rate : 1 509 kb/s
Channel(s) : 6 channels
Channel positions : Front: L C R, Side: L R, LFE
Sampling rate : 48.0 kHz
Frame rate : 93.750 FPS (512 spf)
Bit depth : 24 bits
Compression mode : Lossy
Stream size : 1.45 GiB (10%)
Language : English
Default : Yes
Forced : No
Statistics Tags Issue : no_variable_data 1970-01-01 00:00:00 / no_variable_data 2010-02-22 21:41:29
FromStats_BitRate : 1508999
FromStats_Duration : 02:17:14.230000000
FromStats_FrameCount : 771959
FromStats_StreamSize : 1553181508

Text #1
ID : 3
Format : UTF-8
Codec ID : S_TEXT/UTF8
Codec ID/Info : UTF-8 Plain Text
Title : Forced
Language : English
Default : Yes
Forced : Yes
Statistics Tags Issue : no_variable_data 1970-01-01 00:00:00 / no_variable_data 2010-02-22 21:41:29
FromStats_BitRate : 1
FromStats_Duration : 00:35:41.097000000
FromStats_FrameCount : 7
FromStats_StreamSize : 364

Text #2
ID : 4
Format : UTF-8
Codec ID : S_TEXT/UTF8
Codec ID/Info : UTF-8 Plain Text
Language : English
Default : No
Forced : No
Statistics Tags Issue : no_variable_data 1970-01-01 00:00:00 / no_variable_data 2010-02-22 21:41:29
FromStats_BitRate : 42
FromStats_Duration : 02:11:00.435000000
FromStats_FrameCount : 1122
FromStats_StreamSize : 42177

Text #3
ID : 5
Format : UTF-8
Codec ID : S_TEXT/UTF8
Codec ID/Info : UTF-8 Plain Text
Title : SDH
Language : English
Default : No
Forced : No
Statistics Tags Issue : no_variable_data 1970-01-01 00:00:00 / no_variable_data 2010-02-22 21:41:29
FromStats_BitRate : 50
FromStats_Duration : 02:12:16.469000000
FromStats_FrameCount : 1451
FromStats_StreamSize : 50441

Menu
00:00:00.000 : en:00:00:00.000
00:14:41.380 : en:00:14:41.380
00:19:57.321 : en:00:19:57.321
00:24:07.404 : en:00:24:07.404
00:37:22.574 : en:00:37:22.574
00:48:38.791 : en:00:48:38.791
01:01:18.299 : en:01:01:18.299
01:19:32.601 : en:01:19:32.601
01:26:26.640 : en:01:26:26.640
01:34:00.093 : en:01:34:00.093
01:42:35.816 : en:01:42:35.816
01:45:42.377 : en:01:45:42.377
01:53:43.400 : en:01:53:43.400
01:57:49.729 : en:01:57:49.729
02:05:52.545 : en:02:05:52.545
02:11:32.426 : en:02:11:32.426


BDRip 720p Screenshots

Close Encounters of the Third Kind (1977) [Remastered]

Close Encounters of the Third Kind (1977) [Remastered]

Close Encounters of the Third Kind (1977) [Remastered]


BDRip 1080p Screenshots

Close Encounters of the Third Kind (1977) [Remastered]

Close Encounters of the Third Kind (1977) [Remastered]

Close Encounters of the Third Kind (1977) [Remastered]


Come Visit My Blog (•‿•)