Christmas in Connecticut (1945)

Christmas in Connecticut (1945)

Christmas in Connecticut (1945)
BDRip | MOV | 1488x1080 | English | H264 @ 2215 kbps | AAC @ 96 kbps | 1 h 41 min | 1.64 GiB
Genre: Comedy, Romance

Journalist Elizabeth Lane is one of the country's most famous food writers. In her columns, she describes herself as a hard working farm woman, taking care of her children and being an excellent cook. But this is all lies. In reality she is an unmarried New Yorker who can't even boil an egg. The recipes come from her good friend Felix. The owner of the magazine she works for has decided that a heroic sailor will spend his Christmas on *her* farm. Miss Lane knows that her career is over if the truth comes out, but what can she do?

Christmas.in.Connecticut.1945.1080p.BluRay.x264.YIFY.mp4 (1.6 GB)



General
Complete name : ./Christmas.in.Connecticut.1945.1080p.BluRay.x264.YIFY.mp4
Format : MPEG-4
Format profile : Base Media
Codec ID : isom (isom/avc1)
File size : 1.64 GiB
Duration : 1 h 41 min
Overall bit rate mode : Variable
Overall bit rate : 2 313 kb/s
Encoded date : UTC 2014-11-14 16:59:22
Tagged date : UTC 2014-11-14 16:59:22

Video
ID : 1
Format : AVC
Format/Info : Advanced Video Codec
Format profile : High@L4.1
Format settings : CABAC / 4 Ref Frames
Format settings, CABAC : Yes
Format settings, RefFrames : 4 frames
Codec ID : avc1
Codec ID/Info : Advanced Video Coding
Duration : 1 h 41 min
Bit rate : 2 215 kb/s
Maximum bit rate : 8 935 kb/s
Width : 1 488 pixels
Height : 1 080 pixels
Display aspect ratio : 1.378
Frame rate mode : Constant
Frame rate : 23.976 (24000/1001) FPS
Original frame rate : 23.976 (23976/1000) FPS
Color space : YUV
Chroma subsampling : 4:2:0
Bit depth : 8 bits
Scan type : Progressive
Bits/(Pixel*Frame) : 0.057
Stream size : 1.57 GiB (96%)
Writing library : x264 core 142 r2479 dd79a61
Encoding settings : cabac=1 / ref=4 / deblock=1:-1:-1 / analyse=0x3:0x133 / me=umh / subme=9 / psy=1 / psy_rd=1.00:0.15 / mixed_ref=1 / me_range=24 / chroma_me=1 / trellis=2 / 8x8dct=1 / cqm=0 / deadzone=21,11 / fast_pskip=0 / chroma_qp_offset=-3 / threads=48 / lookahead_threads=4 / sliced_threads=0 / nr=0 / decimate=1 / interlaced=0 / bluray_compat=0 / constrained_intra=0 / bframes=3 / b_pyramid=2 / b_adapt=2 / b_bias=0 / direct=3 / weightb=1 / open_gop=0 / weightp=2 / keyint=250 / keyint_min=23 / scenecut=40 / intra_refresh=0 / rc_lookahead=60 / rc=2pass / mbtree=1 / bitrate=2215 / ratetol=1.0 / qcomp=0.60 / qpmin=0 / qpmax=69 / qpstep=4 / cplxblur=20.0 / qblur=0.5 / vbv_maxrate=31250 / vbv_bufsize=31250 / nal_hrd=none / filler=0 / ip_ratio=1.40 / aq=1:1.00
Encoded date : UTC 2014-11-14 16:59:22
Tagged date : UTC 2014-11-14 16:59:32
Color range : Limited
Color primaries : BT.709
Matrix coefficients : BT.709

Audio
ID : 2
Format : AAC
Format/Info : Advanced Audio Codec
Format profile : LC
Codec ID : mp4a-40-2
Duration : 1 h 41 min
Bit rate mode : Variable
Bit rate : 96.0 kb/s
Maximum bit rate : 104 kb/s
Channel(s) : 1 channel
Channel positions : Front: C
Sampling rate : 48.0 kHz
Frame rate : 46.875 FPS (1024 SPF)
Compression mode : Lossy
Stream size : 68.7 MiB (4%)
Language : English
Encoded date : UTC 2014-11-14 16:59:31
Tagged date : UTC 2014-11-14 16:59:32





Christmas in Connecticut (1945)


Christmas in Connecticut (1945)


Christmas in Connecticut (1945)


Christmas in Connecticut (1945)


Christmas in Connecticut (1945)