Chariots of Fire (1981)

Chariots of Fire (1981)

Chariots of Fire (1981)
BDRip 1080p | MKV | 1920x1040 | AVC@9122 kb/s | English DTS@1509 kb/s | 6 channels | 2 h 3 min | 9.17 GB
Genre: Biography, Drama, Sport

Two British track athletes, one a determined Jew and the other a devout Christian, compete in the 1924 Olympics.

IMDB - Won 4 Oscars. Another 14 wins & 19 nominations


General
Unique ID : 188087618222944428119194464543915101938 (0x8D805B8C5AFF2EC3903E4D835073CEF2)
Complete name : D:\A\Chariots.of Fire.1981.1080p.mkv
Format : Matroska
Format version : Version 4 / Version 2
File size : 9.18 GiB
Duration : 2 h 3 min
Overall bit rate : 10.6 Mb/s
Movie name : Die Stunde des Siegers (1981)
Encoded date : UTC 2016-12-26 18:47:22
Writing application : mkvmerge v9.2.0 ('Photograph') 32bit
Writing library : libebml v1.3.3 + libmatroska v1.4.4

Video
ID : 1
Format : AVC
Format/Info : Advanced Video Codec
Format profile : High@L4.1
Format settings, CABAC : Yes
Format settings, ReFrames : 4 frames
Codec ID : V_MPEG4/ISO/AVC
Duration : 2 h 3 min
Bit rate : 9 122 kb/s
Width : 1 920 pixels
Height : 1 040 pixels
Display aspect ratio : 1.85:1
Frame rate mode : Constant
Frame rate : 23.976 (24000/1001) FPS
Color space : YUV
Chroma subsampling : 4:2:0
Bit depth : 8 bits
Scan type : Progressive
Bits/(Pixel*Frame) : 0.191
Stream size : 7.87 GiB (86%)
Title : Die Stunde des Siegers (1981)
Writing library : x264 core 125 r2200 999b753
Encoding settings : cabac=1 / ref=4 / deblock=1:0:0 / analyse=0x3:0x113 / me=umh / subme=7 / psy=1 / psy_rd=1.00:0.00 / mixed_ref=1 / me_range=16 / chroma_me=1 / trellis=1 / 8x8dct=1 / cqm=0 / deadzone=21,11 / fast_pskip=0 / chroma_qp_offset=-2 / threads=18 / lookahead_threads=3 / sliced_threads=0 / nr=0 / decimate=1 / interlaced=0 / bluray_compat=0 / constrained_intra=0 / bframes=3 / b_pyramid=2 / b_adapt=1 / b_bias=0 / direct=1 / weightb=1 / open_gop=0 / weightp=2 / keyint=250 / keyint_min=23 / scenecut=40 / intra_refresh=0 / rc_lookahead=40 / rc=2pass / mbtree=1 / bitrate=9122 / ratetol=1.0 / qcomp=0.60 / qpmin=0 / qpmax=69 / qpstep=4 / cplxblur=20.0 / qblur=0.5 / ip_ratio=1.40 / aq=1:1.00
Default : Yes
Forced : No

Audio
ID : 2
Format : DTS
Format/Info : Digital Theater Systems
Mode : 16
Format settings, Endianness : Big
Codec ID : A_DTS
Duration : 2 h 3 min
Bit rate mode : Constant
Bit rate : 1 509 kb/s
Channel(s) : 6 channels
Channel positions : Front: L C R, Side: L R, LFE
Sampling rate : 48.0 kHz
Frame rate : 93.750 FPS (512 spf)
Bit depth : 24 bits
Compression mode : Lossy
Stream size : 1.30 GiB (14%)
Title : DTS
Language : English
Default : Yes
Forced : No

Menu
00:00:00.000 : de:00:00:00.000
00:04:12.669 : de:00:04:12.669
00:12:02.388 : de:00:12:02.388
00:16:36.162 : de:00:16:36.162
00:27:24.059 : de:00:27:24.059
00:32:09.427 : de:00:32:09.427
00:38:48.409 : de:00:38:48.409
00:45:14.295 : de:00:45:14.295
00:51:07.481 : de:00:51:07.481
00:55:32.538 : de:00:55:32.538
00:59:52.047 : de:00:59:52.047
01:02:28.453 : de:01:02:28.453
01:07:38.388 : de:01:07:38.388
01:12:21.629 : de:01:12:21.629
01:16:00.014 : de:01:16:00.014
01:19:40.359 : de:01:19:40.359
01:24:04.039 : de:01:24:04.039
01:32:30.378 : de:01:32:30.378
01:36:18.690 : de:01:36:18.690
01:40:38.741 : de:01:40:38.741
01:48:00.599 : de:01:48:00.599
01:51:36.940 : de:01:51:36.940
01:56:15.594 : de:01:56:15.594
01:58:52.751 : de:01:58:52.751


BDRip 1080p Screenshots

Chariots of Fire (1981)

Chariots of Fire (1981)

Chariots of Fire (1981)

Chariots of Fire (1981)


Come Visit My Blog (•‿•)