Leavell-Brunswick Productions - Champions Forever: The Formula One Drivers (1974)

Leavell-Brunswick Productions - Champions Forever: The Formula One Drivers (1974)

Leavell-Brunswick Productions - Champions Forever: The Formula One Drivers (1974)
DVDRip | 716x400 | .MKV/AVC @ 1916 Kbps | 1h 28min | 1.30 GiB
Audio: English AC3 192 kbps, 2 channels | Subs: None
Genre: Documentary

A legendary F1 documentary film made in 1974 that depicts the greatest popular motor sports world "F1". Many popular drivers at that time, Niki Lauda, ​​Jackie Stewart, James Hunt and others appear in the film. "One by One" is a documentary about the deadliness of Grand Prix racing, including footage of fatal racing accidents. The film was reissued as "The Quick and the Dead" in 1978 including the death of Tom Pryce at the 1977 South African Grand Prix and was later released also as "Champions Forever: The Formula One Drivers".


General
Unique ID : 200266475095859896754312586252880125987 (0x96A9EB8D45CD0D178A4C5FB6BC1F2023)
Complete name : Champions.Forever.The.Formula.One.Drivers.mkv
Format : Matroska
Format version : Version 4 / Version 2
File size : 1.30 GiB
Duration : 1 h 28 min
Overall bit rate : 2 110 kb/s

Video
ID : 1
Format : AVC
Format/Info : Advanced Video Codec
Format profile : High@L3.1
Format settings, CABAC : Yes
Format settings, ReFrames : 16 frames
Codec ID : V_MPEG4/ISO/AVC
Duration : 1 h 28 min
Bit rate : 1 916 kb/s
Width : 716 pixels
Height : 400 pixels
Display aspect ratio : 16:9
Frame rate mode : Constant
Frame rate : 29.970 (30000/1001) FPS
Color space : YUV
Chroma subsampling : 4:2:0
Bit depth : 8 bits
Scan type : Progressive
Bits/(Pixel*Frame) : 0.223
Stream size : 1.18 GiB (91%)
Writing library : x264 core 107 r1745 4785e8e
Encoding settings : cabac=1 / ref=16 / deblock=1:0:0 / analyse=0x3:0x133 / me=umh / subme=10 / psy=1 / psy_rd=1.00:0.00 / mixed_ref=1 / me_range=24 / chroma_me=1 / trellis=2 / 8x8dct=1 / cqm=0 / deadzone=21,11 / fast_pskip=1 / chroma_qp_offset=-2 / threads=12 / sliced_threads=0 / nr=0 / decimate=1 / interlaced=0 / constrained_intra=0 / bframes=8 / b_pyramid=2 / b_adapt=2 / b_bias=0 / direct=3 / weightb=1 / open_gop=0 / weightp=2 / keyint=250 / keyint_min=25 / scenecut=40 / intra_refresh=0 / rc_lookahead=60 / rc=2pass / mbtree=1 / bitrate=1916 / ratetol=1.0 / qcomp=0.60 / qpmin=10 / qpmax=51 / qpstep=4 / cplxblur=20.0 / qblur=0.5 / ip_ratio=1.40 / aq=1:1.00
Default : Yes
Forced : No

Audio
ID : 2
Format : AC-3
Format/Info : Audio Coding 3
Format settings, Endianness : Big
Codec ID : A_AC3
Duration : 1 h 27 min
Bit rate mode : Constant
Bit rate : 192 kb/s
Channel(s) : 2 channels
Channel positions : Front: L R
Sampling rate : 48.0 kHz
Frame rate : 31.250 FPS (1536 spf)
Bit depth : 16 bits
Compression mode : Lossy
Stream size : 120 MiB (9%)
Language : English
Service kind : Complete Main
Default : Yes
Forced : No


Screenshots:

Leavell-Brunswick Productions - Champions Forever: The Formula One Drivers (1974)

Leavell-Brunswick Productions - Champions Forever: The Formula One Drivers (1974)

Leavell-Brunswick Productions - Champions Forever: The Formula One Drivers (1974)

Leavell-Brunswick Productions - Champions Forever: The Formula One Drivers (1974)