Channel 4 - The Algerian War 1954-1962 (1984)

Channel 4 - The Algerian War 1954-1962 (1984)

Channel 4 - The Algerian War 1954-1962 (1984)
DVDRip | 720x544 | .MKV/AVC @ 1877 Kbps | 5x~51min | 3.87 GiB
Audio: English AC3 256 kbps, 1 channels | Subs: None
Genre: Documentary

The Algerian War was a momentous struggle for independence from France by Algerian nationalists between 1954 and 1962. Unique historic footage has been gathered from both sides, much of it never before seen. The cameras were free to roam in both countries and many of the interviewees speak frankly for the first time of their role in the struggle.
This eight-year conflict caused the fall of six French Prime Ministers and eventually the collapse of the Fourth Republic. It returned Charles de Gaulle to power but also almost saw his demise and twice brought civil strife to mainland France, and the fear of a military coup. It resulted in the deaths of at least one million Algerians and the exodus of as many European settlers. Pitiless terror, monstrous cruelty, flagrant torture, indiscriminiate violence was countenanced by both sides. It was the last of the old style "colonial struggles" and the first of what would become the widespread wars of decolonization. It also marked the first practical application of what we today call counter-insurgency.

A Peter Batty Production for Channel Four in Association with RTBF

Part 1: Road to Rebellion
Traces the French domination of Algeria, its subsequent colonization, and the rise of Algerian nationalism in the 1920s. By the 1950s, nationalist movements were becoming increasingly radicalized, and the stage was set for the beginning of the Algerian War.

Part 2: A Question of Conscience
The spread of the National Liberation Front's (FLN's) terrorism campaign to French civilians in the main urban centers transformed the conflict from a low-level insurgency to a full-scale war.

Part 3: I Understand You
With the war in Algeria going badly, the stage was set for the triumphant return of Charles de Gaulle to power in 1958. He quickly moved towards French disengagement, and the final showdown between the French government and the French colonialists in Algeria was now at hand.

Part 4: To the Barricades
French colonialists in Algiers staged an insurrection in the Algerian capital on January 24th, 1960. Known as "La Semaine des Barricades" (the week of the barricades), the future of the Fifth Republic hung in the balance as the French Army in Algeria considered joining the revolt.

Part 5: The Suitcase or the Coffin
The next year, de Gaulle's government began secret peace negotiations with the National Liberation Front (FLN). On July 3rd, 1962 de Gaulle declared Algeria an independent country. The Algerian War had ended, the flight of a million French Algerians to France, however, had just begun.

General
Unique ID : 254345017259448989682768971865810986538 (0xBF591188DC21695D38AEAC403076E62A)
Complete name : Ch4.The.Algerian.War.1954-1962.1of5.Road.to.Rebellion.mkv
Format : Matroska
Format version : Version 4 / Version 2
File size : 793 MiB
Duration : 51 min 55 s
Overall bit rate : 2 135 kb/s

Video
ID : 1
Format : AVC
Format/Info : Advanced Video Codec
Format profile : High@L4
Format settings, CABAC : Yes
Format settings, ReFrames : 12 frames
Codec ID : V_MPEG4/ISO/AVC
Duration : 51 min 55 s
Bit rate : 1 877 kb/s
Width : 720 pixels
Height : 544 pixels
Display aspect ratio : 4:3
Frame rate mode : Constant
Frame rate : 29.970 (30000/1001) FPS
Color space : YUV
Chroma subsampling : 4:2:0
Bit depth : 8 bits
Scan type : Progressive
Bits/(Pixel*Frame) : 0.160
Stream size : 697 MiB (88%)
Writing library : x264 core 66 r1092 60f4cd8
Encoding settings : cabac=1 / ref=12 / deblock=1:-2:-1 / analyse=0x3:0x133 / me=tesa / subme=8 / psy_rd=1.0:1.0 / mixed_ref=1 / me_range=32 / chroma_me=1 / trellis=2 / 8x8dct=1 / cqm=2 / deadzone=21,11 / chroma_qp_offset=-4 / threads=12 / nr=0 / decimate=1 / mbaff=0 / bframes=8 / b_pyramid=1 / b_adapt=2 / b_bias=0 / direct=3 / wpredb=1 / keyint=250 / keyint_min=25 / scenecut=40(pre) / rc=2pass / bitrate=1877 / ratetol=1.0 / qcomp=0.60 / qpmin=10 / qpmax=51 / qpstep=4 / cplxblur=20.0 / qblur=0.5 / vbv_maxrate=25000 / vbv_bufsize=14000 / ip_ratio=1.40 / pb_ratio=1.30 / aq=1:1.00
Default : Yes
Forced : No

Audio
ID : 2
Format : AC-3
Format/Info : Audio Coding 3
Format settings, Endianness : Big
Codec ID : A_AC3
Duration : 51 min 55 s
Bit rate mode : Constant
Bit rate : 256 kb/s
Channel(s) : 1 channel
Channel positions : Front: C
Sampling rate : 48.0 kHz
Frame rate : 31.250 FPS (1536 spf)
Bit depth : 16 bits
Compression mode : Lossy
Stream size : 95.1 MiB (12%)
Language : English
Service kind : Complete Main
Default : Yes
Forced : No


Screenshots:

Channel 4 - The Algerian War 1954-1962 (1984)

Channel 4 - The Algerian War 1954-1962 (1984)

Channel 4 - The Algerian War 1954-1962 (1984)

Channel 4 - The Algerian War 1954-1962 (1984)