Channel 4 - Raga: A Film Journey into the Soul of India (1971)

Channel 4 - Raga: A Film Journey into the Soul of India (1971)

Channel 4 - Raga: A Film Journey into the Soul of India (1971)
HDTV | 960x720 | .MKV/AVC @ 2236 Kbps | 1h 36min | 1.60 GiB
Audio: English AAC 127 kbps, 2 channels | Subs: English
Genre: Documentary

Howard Worth's documentary follows sitar master Ravi Shankar during the late 1960s. It tracks his return to India to revisit his guru, the Bengali multi-instrumentalist and composer Allauddin Khan; explores Shankar's life as a musician and teacher in the US and Europe, where he helped to introduce Indian classical music and culture; and looks at his influences, including his dancer brother Uday Shankar, and his work with Yehudi Menuhin and George Harrison. English and Hindi with English subtitles.
More info


General
Unique ID : 202238050581172389932538467855269520205 (0x9825A1BA6CF05F3FAC7090F1397E634D)
Complete name : Ch4.Raga.A.Film.Journey.into.the.Soul.of.India.720p.mkv
Format : Matroska
Format version : Version 4 / Version 2
File size : 1.60 GiB
Duration : 1 h 36 min
Overall bit rate : 2 365 kb/s

Video
ID : 1
Format : AVC
Format/Info : Advanced Video Codec
Format profile : High@L3.1
Format settings, CABAC : Yes
Format settings, ReFrames : 4 frames
Codec ID : V_MPEG4/ISO/AVC
Duration : 1 h 36 min
Bit rate : 2 236 kb/s
Width : 960 pixels
Height : 720 pixels
Display aspect ratio : 4:3
Frame rate mode : Constant
Frame rate : 24.000 FPS
Color space : YUV
Chroma subsampling : 4:2:0
Bit depth : 8 bits
Scan type : Progressive
Bits/(Pixel*Frame) : 0.135
Stream size : 1.51 GiB (95%)
Encoding settings : cabac=1 / ref=4 / deblock=1:0:0 / analyse=0x3:0x113 / me=umh / subme=9 / psy=1 / psy_rd=1.00:0.00 / mixed_ref=1 / me_range=24 / chroma_me=1 / trellis=1 / 8x8dct=1 / cqm=0 / deadzone=21,11 / fast_pskip=0 / chroma_qp_offset=-2 / threads=3 / lookahead_threads=1 / sliced_threads=0 / nr=0 / decimate=1 / interlaced=0 / bluray_compat=0 / constrained_intra=0 / bframes=5 / b_pyramid=2 / b_adapt=2 / b_bias=0 / direct=1 / weightb=1 / open_gop=0 / weightp=2 / keyint=250 / keyint_min=24 / scenecut=40 / intra_refresh=0 / rc_lookahead=40 / rc=crf / mbtree=1 / crf=21.0 / qcomp=0.60 / qpmin=0 / qpmax=69 / qpstep=4 / ip_ratio=1.40 / aq=1:1.00
Language : English
Default : Yes
Forced : No

Audio
ID : 2
Format : AAC
Format/Info : Advanced Audio Codec
Format profile : LC
Codec ID : A_AAC
Duration : 1 h 36 min
Bit rate : 127 kb/s
Channel(s) : 2 channels
Channel positions : Front: L R
Sampling rate : 48.0 kHz
Frame rate : 46.875 FPS (1024 spf)
Compression mode : Lossy
Delay relative to video : 9 ms
Stream size : 87.9 MiB (5%)
Language : English
Default : Yes
Forced : No

Text
ID : 3
Format : UTF-8
Codec ID : S_TEXT/UTF8
Codec ID/Info : UTF-8 Plain Text
Duration : 1 h 36 min
Bit rate : 15 b/s
Count of elements : 352
Stream size : 11.1 KiB (0%)
Language : English
Default : No
Forced : No


Screenshots:

Channel 4 - Raga: A Film Journey into the Soul of India (1971)

Channel 4 - Raga: A Film Journey into the Soul of India (1971)

Channel 4 - Raga: A Film Journey into the Soul of India (1971)

Channel 4 - Raga: A Film Journey into the Soul of India (1971)