Cattle Drive (1951)

Cattle Drive (1951)

Cattle Drive (1951)
BDRip | MKV | 720x540 | AVC@1131 kb/s | English AAC@112 kb/s | 2 channels | 1 h 17 min | 687 MB
BDRip 720p | MKV | 1280x960 | AVC@6598 kb/s | English DTS@1509 kb/s
2 channels | 1 h 17 min | 4.37 GB
BDRip 1080p | MKV | 1440x1080 | AVC@12.7 Mb/s | English DTS@1509 kb/s
2 channels | 1 h 17 min | 7.64 GB
Genre: Action, Western

A cowboy finds the spoiled son of a railroad magnate lost in the deserted hills and teaches him survival skills and hard work values.



General
Cattle.Drive.1951.BDRip.x264-RUSTED\cattle.drive.1951.bdrip.bluray.x264-rusted.mkv
Format : Matroska
Format version : Version 4 / Version 2
File size : 687 MiB
Duration : 1 h 17 min
Overall bit rate : 1 246 kb/s
Encoded date : UTC 2017-08-20 16:12:58
Writing application : mkvmerge v11.0.0 ('Alive') 64bit
Writing library : libebml v1.3.4 + libmatroska v1.4.5

Video
ID : 1
Format : AVC
Format/Info : Advanced Video Codec
Format profile : High@L3.1
Format settings, CABAC : Yes
Format settings, ReFrames : 5 frames
Codec ID : V_MPEG4/ISO/AVC
Duration : 1 h 17 min
Bit rate : 1 131 kb/s
Width : 720 pixels
Height : 540 pixels
Display aspect ratio : 4:3
Frame rate mode : Constant
Frame rate : 23.976 (24000/1001) FPS
Color space : YUV
Chroma subsampling : 4:2:0
Bit depth : 8 bits
Scan type : Progressive
Bits/(Pixel*Frame) : 0.121
Stream size : 624 MiB (91%)
Writing library : x264 core 152 r2851 ba24899
Encoding settings : cabac=1 / ref=5 / deblock=1:-2:-2 / analyse=0x3:0x133 / me=hex / subme=8 / psy=1 / psy_rd=0.90:1.00 / mixed_ref=1 / me_range=16 / chroma_me=1 / trellis=2 / 8x8dct=1 / cqm=0 / deadzone=21,11 / fast_pskip=1 / chroma_qp_offset=-4 / threads=16 / lookahead_threads=2 / sliced_threads=0 / nr=0 / decimate=1 / interlaced=0 / bluray_compat=0 / constrained_intra=0 / bframes=3 / b_pyramid=2 / b_adapt=1 / b_bias=0 / direct=3 / weightb=1 / open_gop=0 / weightp=2 / keyint=250 / keyint_min=23 / scenecut=40 / intra_refresh=0 / rc_lookahead=50 / rc=crf / mbtree=1 / crf=23.0 / qcomp=0.60 / qpmin=0 / qpmax=69 / qpstep=4 / ip_ratio=1.40 / aq=1:1.00
Default : Yes
Forced : No
Color range : Limited
Matrix coefficients : BT.709

Audio
ID : 2
Format : AAC
Format/Info : Advanced Audio Codec
Format profile : LC
Codec ID : A_AAC
Duration : 1 h 17 min
Bit rate : 112 kb/s
Channel(s) : 2 channels
Channel positions : Front: L R
Sampling rate : 48.0 kHz
Frame rate : 46.875 FPS (1024 spf)
Compression mode : Lossy
Delay relative to video : 9 ms
Stream size : 61.8 MiB (9%)
Language : English
Default : Yes
Forced : No

Menu
00:00:00.000 : en:00:00:00.000
00:07:09.471 : en:00:07:09.471
00:12:48.226 : en:00:12:48.226
00:19:21.744 : en:00:19:21.744
00:25:06.505 : en:00:25:06.505
00:32:24.025 : en:00:32:24.025
00:39:13.226 : en:00:39:13.226
00:43:21.641 : en:00:43:21.641
00:51:28.294 : en:00:51:28.294
00:58:03.814 : en:00:58:03.814
01:03:38.565 : en:01:03:38.565
01:11:14.729 : en:01:11:14.729

General
Cattle.Drive.1951.720p.BluRay.x264-RUSTED\cattle.drive.1951.720p.bluray.x264-rusted.mkv
Format : Matroska
Format version : Version 4 / Version 2
File size : 4.37 GiB
Duration : 1 h 17 min
Overall bit rate : 8 109 kb/s
Encoded date : UTC 2017-08-18 19:10:46
Writing application : mkvmerge v8.3.0 ('Over the Horizon') 64bit
Writing library : libebml v1.3.1 + libmatroska v1.4.2

Video
ID : 1
Format : AVC
Format/Info : Advanced Video Codec
Format profile : High@L4.1
Format settings, CABAC : Yes
Format settings, ReFrames : 5 frames
Codec ID : V_MPEG4/ISO/AVC
Duration : 1 h 17 min
Bit rate : 6 598 kb/s
Width : 1 280 pixels
Height : 960 pixels
Display aspect ratio : 4:3
Frame rate mode : Constant
Frame rate : 23.976 (24000/1001) FPS
Color space : YUV
Chroma subsampling : 4:2:0
Bit depth : 8 bits
Scan type : Progressive
Bits/(Pixel*Frame) : 0.224
Stream size : 3.55 GiB (81%)
Writing library : x264 core 152 r2851 ba24899
Encoding settings : cabac=1 / ref=5 / deblock=1:1:1 / analyse=0x3:0x133 / me=umh / subme=8 / psy=1 / psy_rd=1.00:0.00 / mixed_ref=1 / me_range=16 / chroma_me=1 / trellis=1 / 8x8dct=1 / cqm=0 / deadzone=21,11 / fast_pskip=0 / chroma_qp_offset=-2 / threads=16 / lookahead_threads=2 / sliced_threads=0 / nr=0 / decimate=1 / interlaced=0 / bluray_compat=0 / constrained_intra=0 / bframes=3 / b_pyramid=2 / b_adapt=2 / b_bias=0 / direct=3 / weightb=1 / open_gop=0 / weightp=2 / keyint=250 / keyint_min=23 / scenecut=40 / intra_refresh=0 / rc_lookahead=50 / rc=2pass / mbtree=1 / bitrate=6598 / ratetol=1.0 / qcomp=0.60 / qpmin=0 / qpmax=69 / qpstep=4 / cplxblur=20.0 / qblur=0.5 / ip_ratio=1.40 / aq=1:1.00
Default : Yes
Forced : No

Audio
ID : 2
Format : DTS
Format/Info : Digital Theater Systems
Mode : 16
Format settings, Endianness : Big
Codec ID : A_DTS
Duration : 1 h 17 min
Bit rate mode : Constant
Bit rate : 1 509 kb/s
Channel(s) : 2 channels
Channel positions : Front: L R
Sampling rate : 48.0 kHz
Frame rate : 93.750 FPS (512 spf)
Bit depth : 24 bits
Compression mode : Lossy
Stream size : 832 MiB (19%)
Language : English
Default : Yes
Forced : No

Menu
00:00:00.000 : en:00:00:00.000
00:07:09.471 : en:00:07:09.471
00:12:48.226 : en:00:12:48.226
00:19:21.744 : en:00:19:21.744
00:25:06.505 : en:00:25:06.505
00:32:24.025 : en:00:32:24.025
00:39:13.226 : en:00:39:13.226
00:43:21.641 : en:00:43:21.641
00:51:28.294 : en:00:51:28.294
00:58:03.814 : en:00:58:03.814
01:03:38.565 : en:01:03:38.565
01:11:14.729 : en:01:11:14.729

General
Cattle.Drive.1951.1080p.BluRay.x264-RUSTED\cattle.drive.1951.1080p.bluray.x264-rusted.mkv
Format : Matroska
Format version : Version 4 / Version 2
File size : 7.65 GiB
Duration : 1 h 17 min
Overall bit rate : 14.2 Mb/s
Encoded date : UTC 2017-08-18 18:05:53
Writing application : mkvmerge v8.3.0 ('Over the Horizon') 64bit
Writing library : libebml v1.3.1 + libmatroska v1.4.2

Video
ID : 1
Format : AVC
Format/Info : Advanced Video Codec
Format profile : High@L4.1
Format settings, CABAC : Yes
Format settings, ReFrames : 4 frames
Codec ID : V_MPEG4/ISO/AVC
Duration : 1 h 17 min
Bit rate : 12.7 Mb/s
Width : 1 440 pixels
Height : 1 080 pixels
Display aspect ratio : 4:3
Frame rate mode : Constant
Frame rate : 23.976 (24000/1001) FPS
Color space : YUV
Chroma subsampling : 4:2:0
Bit depth : 8 bits
Scan type : Progressive
Bits/(Pixel*Frame) : 0.340
Stream size : 6.84 GiB (89%)
Writing library : x264 core 152 r2851 ba24899
Encoding settings : cabac=1 / ref=4 / deblock=1:1:1 / analyse=0x3:0x133 / me=umh / subme=8 / psy=1 / psy_rd=1.00:0.00 / mixed_ref=1 / me_range=16 / chroma_me=1 / trellis=1 / 8x8dct=1 / cqm=0 / deadzone=21,11 / fast_pskip=0 / chroma_qp_offset=-2 / threads=16 / lookahead_threads=2 / sliced_threads=0 / nr=0 / decimate=1 / interlaced=0 / bluray_compat=0 / constrained_intra=0 / bframes=3 / b_pyramid=2 / b_adapt=2 / b_bias=0 / direct=3 / weightb=1 / open_gop=0 / weightp=2 / keyint=250 / keyint_min=23 / scenecut=40 / intra_refresh=0 / rc_lookahead=50 / rc=2pass / mbtree=1 / bitrate=12689 / ratetol=1.0 / qcomp=0.60 / qpmin=0 / qpmax=69 / qpstep=4 / cplxblur=20.0 / qblur=0.5 / ip_ratio=1.40 / aq=1:1.00
Default : Yes
Forced : No

Audio
ID : 2
Format : DTS
Format/Info : Digital Theater Systems
Mode : 16
Format settings, Endianness : Big
Codec ID : A_DTS
Duration : 1 h 17 min
Bit rate mode : Constant
Bit rate : 1 509 kb/s
Channel(s) : 2 channels
Channel positions : Front: L R
Sampling rate : 48.0 kHz
Frame rate : 93.750 FPS (512 spf)
Bit depth : 24 bits
Compression mode : Lossy
Stream size : 832 MiB (11%)
Language : English
Default : Yes
Forced : No

Menu
00:00:00.000 : en:00:00:00.000
00:07:09.471 : en:00:07:09.471
00:12:48.226 : en:00:12:48.226
00:19:21.744 : en:00:19:21.744
00:25:06.505 : en:00:25:06.505
00:32:24.025 : en:00:32:24.025
00:39:13.226 : en:00:39:13.226
00:43:21.641 : en:00:43:21.641
00:51:28.294 : en:00:51:28.294
00:58:03.814 : en:00:58:03.814
01:03:38.565 : en:01:03:38.565
01:11:14.729 : en:01:11:14.729


BDRip Screenshots

Cattle Drive (1951)

Cattle Drive (1951)

Cattle Drive (1951)


BDRip 720p Screenshots

Cattle Drive (1951)

Cattle Drive (1951)

Cattle Drive (1951)


BDRip 1080p Screenshots

Cattle Drive (1951)

Cattle Drive (1951)

Cattle Drive (1951)


Come Visit My Blog (•‿•)