Camille Claudel (1988)

Camille Claudel (1988)

Camille Claudel (1988)
BDRip 1080p | MKV | AVC, 1920x816, ~ 3.7 Mbps | 2hr 53mn | 6.87 GB
French (Français): DTS, 2 ch, 1510 kbps; English: AC3, 2 ch, 448 kbps
BDRip 720p | MKV | AVC, 1280x720, ~ 2.6 Mbps | 2hr 53mn | 4.25 GB
French (Français): AC3, 2 ch, 448 kbps; English: AC3, 2 ch, 448 kbps
Subtitles: English
Genre: Biography, Drama, History
IMDB Rating: 7.3/10 (5.810 votes)


Director: Bruno Nuytten
Writers: Reine-Marie Paris (based on the book by), Bruno Nuytten (scenario and dialogue)
Stars: Isabelle Adjani, Gérard Depardieu, Madeleine Robinson

Distributor: Kino Lorber

Biography of Camille Claudel. Sister of writer Paul Claudel, her enthusiasm impresses already-famous sculptor Auguste Rodin. He hires her as an assistant, but soon Camille begins to sculpt for herself and for Rodin. She also becomes his mistress. But after a while, she would like to get out of his shadow…

Extras:
- Audio commentary by film historian Samm Deighan




General
Unique ID : 241916785413287203313790930734055586989 (0xB5FF7A6544BE42559474CAAF1E767CAD)
Complete name : F:\CamilleClaudel.1988.KL.1p\CamilleClaudel.1988.KL.1p.mkv
Format : Matroska
Format version : Version 4 / Version 2
File size : 6.87 GiB
Duration : 2 h 53 min
Overall bit rate : 5 654 kb/s
Movie name : Release RSU75
Encoded date : UTC 2019-12-29 17:01:22
Writing application : mkvmerge v6.6.0 ('The Edge Of The In Between') built on Dec 1 2013 17:55:00
Writing library : libebml v1.3.0 + libmatroska v1.4.1

Video
ID : 1
Format : AVC
Format/Info : Advanced Video Codec
Format profile : High@L4.1
Format settings : CABAC / 4 Ref Frames
Format settings, CABAC : Yes
Format settings, ReFrames : 4 frames
Codec ID : V_MPEG4/ISO/AVC
Duration : 2 h 53 min
Bit rate : 3 700 kb/s
Width : 1 920 pixels
Height : 816 pixels
Display aspect ratio : 2.35:1
Frame rate mode : Constant
Frame rate : 23.976 (23976/1000) FPS
Color space : YUV
Chroma subsampling : 4:2:0
Bit depth : 8 bits
Scan type : Progressive
Bits/(Pixel*Frame) : 0.098
Stream size : 4.35 GiB (63%)
Writing library : x264 core 148 r2643 5c65704
Encoding settings : cabac=1 / ref=4 / deblock=1:0:0 / analyse=0x3:0x113 / me=umh / subme=8 / psy=1 / psy_rd=1.00:0.00 / mixed_ref=1 / me_range=24 / chroma_me=1 / trellis=1 / 8x8dct=1 / cqm=0 / deadzone=21,11 / fast_pskip=1 / chroma_qp_offset=-2 / threads=3 / lookahead_threads=1 / sliced_threads=0 / nr=0 / decimate=1 / interlaced=0 / bluray_compat=0 / constrained_intra=0 / bframes=3 / b_pyramid=0 / b_adapt=2 / b_bias=0 / direct=3 / weightb=1 / open_gop=0 / weightp=2 / keyint=250 / keyint_min=25 / scenecut=40 / intra_refresh=0 / rc_lookahead=40 / rc=abr / mbtree=1 / bitrate=3700 / ratetol=1.0 / qcomp=0.60 / qpmin=10 / qpmax=51 / qpstep=4 / ip_ratio=1.41 / aq=1:1.00
Language : English
Default : Yes
Forced : No

Audio #1
ID : 2
Format : DTS
Format/Info : Digital Theater Systems
Codec ID : A_DTS
Duration : 2 h 53 min
Bit rate mode : Constant
Bit rate : 1 509 kb/s
Channel(s) : 2 channels
Channel layout : L R
Sampling rate : 48.0 kHz
Frame rate : 93.750 FPS (512 SPF)
Bit depth : 24 bits
Compression mode : Lossy
Stream size : 1.83 GiB (27%)
Language : French
Default : Yes
Forced : No

Audio #2
ID : 3
Format : AC-3
Format/Info : Audio Coding 3
Commercial name : Dolby Digital
Codec ID : A_AC3
Duration : 2 h 53 min
Bit rate mode : Constant
Bit rate : 448 kb/s
Channel(s) : 2 channels
Channel layout : L R
Sampling rate : 48.0 kHz
Frame rate : 31.250 FPS (1536 SPF)
Bit depth : 16 bits
Compression mode : Lossy
Stream size : 557 MiB (8%)
Language : English
Service kind : Complete Main
Default : No
Forced : No

Text
ID : 4
Format : PGS
Muxing mode : zlib
Codec ID : S_HDMV/PGS
Codec ID/Info : Picture based subtitle format used on BDs/HD-DVDs
Language : English
Default : Yes
Forced : No

Menu
00:00:00.000 : en:Chapter 01
00:17:04.898 : en:Chapter 02
00:35:01.724 : en:Chapter 03
00:51:15.447 : en:Chapter 04
01:09:53.731 : en:Chapter 05
01:26:20.592 : en:Chapter 06
01:44:31.056 : en:Chapter 07
01:57:43.389 : en:Chapter 08
02:14:34.316 : en:Chapter 09
02:32:10.162 : en:Chapter 10
02:53:52.547 : en:Chapter 11





General
Unique ID : 206863410351365057025731046740464875199 (0x9BA0719259A2794795A9ACCE2F01B6BF)
Complete name : F:\CamilleClaudel.1988.KL.7p\CamilleClaudel.1988.KL.7p.mkv
Format : Matroska
Format version : Version 4 / Version 2
File size : 4.25 GiB
Duration : 2 h 53 min
Overall bit rate : 3 501 kb/s
Movie name : Release RSU75
Encoded date : UTC 2019-12-28 18:11:24
Writing application : mkvmerge v6.6.0 ('The Edge Of The In Between') built on Dec 1 2013 17:55:00
Writing library : libebml v1.3.0 + libmatroska v1.4.1

Video
ID : 1
Format : AVC
Format/Info : Advanced Video Codec
Format profile : High@L4.1
Format settings : CABAC / 4 Ref Frames
Format settings, CABAC : Yes
Format settings, ReFrames : 4 frames
Codec ID : V_MPEG4/ISO/AVC
Duration : 2 h 53 min
Bit rate : 2 600 kb/s
Width : 1 280 pixels
Height : 544 pixels
Display aspect ratio : 2.35:1
Frame rate mode : Constant
Frame rate : 23.976 (23976/1000) FPS
Color space : YUV
Chroma subsampling : 4:2:0
Bit depth : 8 bits
Scan type : Progressive
Bits/(Pixel*Frame) : 0.156
Stream size : 3.08 GiB (72%)
Writing library : x264 core 148 r2643 5c65704
Encoding settings : cabac=1 / ref=4 / deblock=1:0:0 / analyse=0x3:0x113 / me=umh / subme=8 / psy=1 / psy_rd=1.00:0.00 / mixed_ref=1 / me_range=24 / chroma_me=1 / trellis=1 / 8x8dct=1 / cqm=0 / deadzone=21,11 / fast_pskip=1 / chroma_qp_offset=-2 / threads=3 / lookahead_threads=1 / sliced_threads=0 / nr=0 / decimate=1 / interlaced=0 / bluray_compat=0 / constrained_intra=0 / bframes=3 / b_pyramid=0 / b_adapt=2 / b_bias=0 / direct=3 / weightb=1 / open_gop=0 / weightp=2 / keyint=250 / keyint_min=25 / scenecut=40 / intra_refresh=0 / rc_lookahead=40 / rc=abr / mbtree=1 / bitrate=2600 / ratetol=1.0 / qcomp=0.60 / qpmin=10 / qpmax=51 / qpstep=4 / ip_ratio=1.41 / aq=1:1.00
Language : English
Default : Yes
Forced : No

Audio #1
ID : 2
Format : AC-3
Format/Info : Audio Coding 3
Commercial name : Dolby Digital
Codec ID : A_AC3
Duration : 2 h 53 min
Bit rate mode : Constant
Bit rate : 448 kb/s
Channel(s) : 2 channels
Channel layout : L R
Sampling rate : 48.0 kHz
Frame rate : 31.250 FPS (1536 SPF)
Bit depth : 16 bits
Compression mode : Lossy
Stream size : 557 MiB (13%)
Language : French
Service kind : Complete Main
Default : Yes
Forced : No

Audio #2
ID : 3
Format : AC-3
Format/Info : Audio Coding 3
Commercial name : Dolby Digital
Codec ID : A_AC3
Duration : 2 h 53 min
Bit rate mode : Constant
Bit rate : 448 kb/s
Channel(s) : 2 channels
Channel layout : L R
Sampling rate : 48.0 kHz
Frame rate : 31.250 FPS (1536 SPF)
Bit depth : 16 bits
Compression mode : Lossy
Stream size : 557 MiB (13%)
Language : English
Service kind : Complete Main
Default : No
Forced : No

Text
ID : 4
Format : PGS
Muxing mode : zlib
Codec ID : S_HDMV/PGS
Codec ID/Info : Picture based subtitle format used on BDs/HD-DVDs
Language : English
Default : Yes
Forced : No

Menu
00:00:00.000 : en:Chapter 01
00:17:04.898 : en:Chapter 02
00:35:01.724 : en:Chapter 03
00:51:15.447 : en:Chapter 04
01:09:53.731 : en:Chapter 05
01:26:20.592 : en:Chapter 06
01:44:31.056 : en:Chapter 07
01:57:43.389 : en:Chapter 08
02:14:34.316 : en:Chapter 09
02:32:10.162 : en:Chapter 10
02:53:52.547 : en:Chapter 11




Screenshots 1080p (click to enlarge to original size):

Camille Claudel (1988)

Camille Claudel (1988)

Camille Claudel (1988)



Screenshots 720p (click to enlarge to original size):

Camille Claudel (1988)






If you like this release please visit my blog
In it you will find "Kino Lorber" releases (DVD, DVDRip, Blu-Ray, BDRip)