Brute Force (1947) [Criterion Collection]

Brute Force (1947) [Criterion Collection]

Brute Force (1947) [Criterion Collection, Spine #383]
BDRip 1080p | MKV | AVC 1480x1080, ~ 3.8 Mbps | 1hr 40mn | 3.11 GB
English: AC3, 1 ch, 448 kbps; English (Commentary): AC3, 1 ch, 192 kbps
BDRip 720p | MKV | AVC 988x720, ~ 2.6 Mbps | 1hr 40mn | 2.14 GB
English: AC3, 1 ch, 256 kbps; English (Commentary): AC3, 1 ch, 192 kbps
Subtitles: English
Genre: Crime, Drama, Film-Noir



Director: Jules Dassin
Writer: Richard Brooks (screenplay), Robert Patterson (story)
Stars: Burt Lancaster, Hume Cronyn, Charles Bickford

As hard-hitting as its title, Brute Force was one of Jules Dassin’s first forays into the crime genre, a prison melodrama with a scathing critique of the punitive American incarceration system at its heart. Burt Lancaster is the timeworn Joe Collins, who, along with his fellow inmates, lives under the heavy thumb of the sadistic, power-tripping guard Captain Munsey (a riveting Hume Cronyn). Only Collins’s dreams of escape keep him going, but how can he possibly bust out of Munsey’s chains? Matter-of-fact and ferocious, Brute Force builds to an explosive climax that shows the lengths men will go to when fighting for their freedom, and asks the question of who society’s real brutes are.

Extras:
- Audio commentary from 2007 featuring film-noir specialists Alain Silver and James Ursini




General
Unique ID : 240102275750166954065349718388990405022 (0xB4A20429809F103E9CF5F62791D5E99E)
Complete name : F:\BruteForce.1947.Cr.1p\BruteForce.1947.Cr.1p.mkv
Format : Matroska
Format version : Version 4
File size : 3.11 GiB
Duration : 1 h 40 min
Overall bit rate : 4 415 kb/s
Movie name : Release RSU75
Encoded date : UTC 2020-09-15 03:41:56
Writing application : mkvmerge v6.6.0 ('The Edge Of The In Between') built on Dec 1 2013 17:55:00
Writing library : libebml v1.3.0 + libmatroska v1.4.1

Video
ID : 1
Format : AVC
Format/Info : Advanced Video Codec
Format profile : High@L4.1
Format settings : CABAC / 4 Ref Frames
Format settings, CABAC : Yes
Format settings, Reference fra : 4 frames
Codec ID : V_MPEG4/ISO/AVC
Duration : 1 h 40 min
Bit rate : 3 800 kb/s
Width : 1 480 pixels
Height : 1 080 pixels
Display aspect ratio : 1.370
Frame rate mode : Constant
Frame rate : 23.976 (23976/1000) FPS
Color space : YUV
Chroma subsampling : 4:2:0
Bit depth : 8 bits
Scan type : Progressive
Bits/(Pixel*Frame) : 0.099
Stream size : 2.60 GiB (84%)
Writing library : x264 core 148 r2643 5c65704
Encoding settings : cabac=1 / ref=4 / deblock=1:0:0 / analyse=0x3:0x113 / me=umh / subme=8 / psy=1 / psy_rd=1.00:0.00 / mixed_ref=1 / me_range=24 / chroma_me=1 / trellis=1 / 8x8dct=1 / cqm=0 / deadzone=21,11 / fast_pskip=1 / chroma_qp_offset=-2 / threads=3 / lookahead_threads=1 / sliced_threads=0 / nr=0 / decimate=1 / interlaced=0 / bluray_compat=0 / constrained_intra=0 / bframes=3 / b_pyramid=0 / b_adapt=2 / b_bias=0 / direct=3 / weightb=1 / open_gop=0 / weightp=2 / keyint=250 / keyint_min=25 / scenecut=40 / intra_refresh=0 / rc_lookahead=40 / rc=abr / mbtree=1 / bitrate=3800 / ratetol=1.0 / qcomp=0.60 / qpmin=10 / qpmax=51 / qpstep=4 / ip_ratio=1.41 / aq=1:1.00
Language : English
Default : Yes
Forced : No
Duration_Source : General_Duration

Audio #1
ID : 2
Format : AC-3
Format/Info : Audio Coding 3
Commercial name : Dolby Digital
Codec ID : A_AC3
Duration : 1 h 40 min
Bit rate mode : Constant
Bit rate : 448 kb/s
Channel(s) : 1 channel
Channel layout : C
Sampling rate : 48.0 kHz
Frame rate : 31.250 FPS (1536 SPF)
Compression mode : Lossy
Stream size : 323 MiB (10%)
Title : Mono
Language : English
Service kind : Complete Main
Default : Yes
Forced : No
Duration_Source : General_Duration

Audio #2
ID : 3
Format : AC-3
Format/Info : Audio Coding 3
Commercial name : Dolby Digital
Codec ID : A_AC3
Duration : 1 h 40 min
Bit rate mode : Constant
Bit rate : 192 kb/s
Channel(s) : 1 channel
Channel layout : C
Sampling rate : 48.0 kHz
Frame rate : 31.250 FPS (1536 SPF)
Compression mode : Lossy
Stream size : 138 MiB (4%)
Title : Mono
Language : English
Service kind : Complete Main
Default : No
Forced : No
Duration_Source : General_Duration

Text
ID : 4
Format : PGS
Muxing mode : zlib
Codec ID : S_HDMV/PGS
Codec ID/Info : Picture based subtitle format used on BDs/HD-DVDs
Language : English
Default : Yes
Forced : No

Menu
00:00:00.000 : en:Chapter 01
00:03:38.301 : en:Chapter 02
00:08:35.556 : en:Chapter 03
00:10:03.102 : en:Chapter 04
00:13:33.187 : en:Chapter 05
00:18:50.129 : en:Chapter 06
00:20:12.377 : en:Chapter 07
00:25:55.470 : en:Chapter 08
00:29:08.037 : en:Chapter 09
00:33:34.804 : en:Chapter 10
00:36:13.754 : en:Chapter 11
00:41:54.929 : en:Chapter 12
00:43:24.685 : en:Chapter 13
00:47:06.323 : en:Chapter 14
00:49:29.883 : en:Chapter 15
00:53:38.798 : en:Chapter 16
00:56:05.445 : en:Chapter 17
00:59:16.636 : en:Chapter 18
01:03:08.785 : en:Chapter 19
01:09:37.923 : en:Chapter 20
01:14:01.103 : en:Chapter 21
01:17:49.748 : en:Chapter 22
01:23:38.722 : en:Chapter 23
01:29:20.855 : en:Chapter 24
01:30:41.394 : en:Chapter 25
01:32:48.020 : en:Chapter 26
01:37:53.742 : en:Chapter 27





General
Unique ID : 220801846655403806849485470281408335137 (0xA61CE38A08689B1D935D4182B1BE4D21)
Complete name : F:\BruteForce.1947.Cr.7p\BruteForce.1947.Cr.7p.mkv
Format : Matroska
Format version : Version 4
File size : 2.14 GiB
Duration : 1 h 40 min
Overall bit rate : 3 034 kb/s
Movie name : Release RSU75
Encoded date : UTC 2020-09-15 03:33:36
Writing application : mkvmerge v6.6.0 ('The Edge Of The In Between') built on Dec 1 2013 17:55:00
Writing library : libebml v1.3.0 + libmatroska v1.4.1

Video
ID : 1
Format : AVC
Format/Info : Advanced Video Codec
Format profile : High@L4.1
Format settings : CABAC / 4 Ref Frames
Format settings, CABAC : Yes
Format settings, Reference fra : 4 frames
Codec ID : V_MPEG4/ISO/AVC
Duration : 1 h 40 min
Bit rate : 2 600 kb/s
Width : 988 pixels
Height : 720 pixels
Display aspect ratio : 1.371
Original display aspect ratio : 1.370
Frame rate mode : Constant
Frame rate : 23.976 (23976/1000) FPS
Color space : YUV
Chroma subsampling : 4:2:0
Bit depth : 8 bits
Scan type : Progressive
Bits/(Pixel*Frame) : 0.152
Stream size : 1.78 GiB (83%)
Writing library : x264 core 148 r2643 5c65704
Encoding settings : cabac=1 / ref=4 / deblock=1:0:0 / analyse=0x3:0x113 / me=umh / subme=8 / psy=1 / psy_rd=1.00:0.00 / mixed_ref=1 / me_range=24 / chroma_me=1 / trellis=1 / 8x8dct=1 / cqm=0 / deadzone=21,11 / fast_pskip=1 / chroma_qp_offset=-2 / threads=3 / lookahead_threads=1 / sliced_threads=0 / nr=0 / decimate=1 / interlaced=0 / bluray_compat=0 / constrained_intra=0 / bframes=3 / b_pyramid=0 / b_adapt=2 / b_bias=0 / direct=3 / weightb=1 / open_gop=0 / weightp=2 / keyint=250 / keyint_min=25 / scenecut=40 / intra_refresh=0 / rc_lookahead=40 / rc=abr / mbtree=1 / bitrate=2600 / ratetol=1.0 / qcomp=0.60 / qpmin=10 / qpmax=51 / qpstep=4 / ip_ratio=1.41 / aq=1:1.00
Language : English
Default : Yes
Forced : No
Duration_Source : General_Duration

Audio #1
ID : 2
Format : AC-3
Format/Info : Audio Coding 3
Commercial name : Dolby Digital
Codec ID : A_AC3
Duration : 1 h 40 min
Bit rate mode : Constant
Bit rate : 256 kb/s
Channel(s) : 1 channel
Channel layout : C
Sampling rate : 48.0 kHz
Frame rate : 31.250 FPS (1536 SPF)
Compression mode : Lossy
Stream size : 185 MiB (8%)
Title : Mono
Language : English
Service kind : Complete Main
Default : No
Forced : No
Duration_Source : General_Duration

Audio #2
ID : 3
Format : AC-3
Format/Info : Audio Coding 3
Commercial name : Dolby Digital
Codec ID : A_AC3
Duration : 1 h 40 min
Bit rate mode : Constant
Bit rate : 192 kb/s
Channel(s) : 1 channel
Channel layout : C
Sampling rate : 48.0 kHz
Frame rate : 31.250 FPS (1536 SPF)
Compression mode : Lossy
Stream size : 138 MiB (6%)
Title : Mono
Language : English
Service kind : Complete Main
Default : Yes
Forced : No
Duration_Source : General_Duration

Text
ID : 4
Format : PGS
Muxing mode : zlib
Codec ID : S_HDMV/PGS
Codec ID/Info : Picture based subtitle format used on BDs/HD-DVDs
Language : English
Default : Yes
Forced : No

Menu
00:00:00.000 : en:Chapter 01
00:03:38.301 : en:Chapter 02
00:08:35.556 : en:Chapter 03
00:10:03.102 : en:Chapter 04
00:13:33.187 : en:Chapter 05
00:18:50.129 : en:Chapter 06
00:20:12.377 : en:Chapter 07
00:25:55.470 : en:Chapter 08
00:29:08.037 : en:Chapter 09
00:33:34.804 : en:Chapter 10
00:36:13.754 : en:Chapter 11
00:41:54.929 : en:Chapter 12
00:43:24.685 : en:Chapter 13
00:47:06.323 : en:Chapter 14
00:49:29.883 : en:Chapter 15
00:53:38.798 : en:Chapter 16
00:56:05.445 : en:Chapter 17
00:59:16.636 : en:Chapter 18
01:03:08.785 : en:Chapter 19
01:09:37.923 : en:Chapter 20
01:14:01.103 : en:Chapter 21
01:17:49.748 : en:Chapter 22
01:23:38.722 : en:Chapter 23
01:29:20.855 : en:Chapter 24
01:30:41.394 : en:Chapter 25
01:32:48.020 : en:Chapter 26
01:37:53.742 : en:Chapter 27




Screenshots 1080p (click to enlarge to original size):

Brute Force (1947) [Criterion Collection]

Brute Force (1947) [Criterion Collection]

Brute Force (1947) [Criterion Collection]



Screenshots 720p (click to enlarge to original size):

Brute Force (1947) [Criterion Collection]





More in My Blog



If you like this release please visit my blog
In it you will find ALL the latest Criterion Collection releases