Brian's Song (1971)

Brian's Song (1971)

Brian's Song (1971)
WEB-DL 1080p | MKV | 1440x1080 | AVC@13.6 Mb/s | English AC3@224 kb/s
Subs: English | 2 channels | 1 h 14 min | 7.15 GB
Genre: Biography, Drama, Sport

Based on the real-life relationship between teammates Brian Piccolo and Gale Sayers and the bond established when Piccolo discovers that he is dying.

IMDB - Nominated for 1 Golden Globe. Another 10 wins & 7 nominations.


General
Brians.Song.1971.1080p.AMZN.WEB-DL.DDP2.0.x264-ABM\Brians.Song.1971.1080p.AMZN.WEB-DL.DDP2.0.x264-ABM.mkv
Format : Matroska
Format version : Version 4 / Version 2
File size : 7.15 GiB
Duration : 1 h 14 min
Overall bit rate mode : Variable
Overall bit rate : 13.8 Mb/s
Encoded date : UTC 2017-10-26 16:57:57
Writing application : mkvmerge v13.0.0 ('The Juggler') 64bit
Writing library : libebml v1.3.4 + libmatroska v1.4.5

Video
ID : 1
Format : AVC
Format/Info : Advanced Video Codec
Format profile : High@L4
Format settings, CABAC : Yes
Format settings, ReFrames : 4 frames
Codec ID : V_MPEG4/ISO/AVC
Duration : 1 h 14 min
Bit rate mode : Variable
Bit rate : 13.6 Mb/s
Maximum bit rate : 15.0 Mb/s
Width : 1 440 pixels
Height : 1 080 pixels
Display aspect ratio : 4:3
Frame rate mode : Constant
Frame rate : 23.976 (24000/1001) FPS
Color space : YUV
Chroma subsampling : 4:2:0
Bit depth : 8 bits
Scan type : Progressive
Bits/(Pixel*Frame) : 0.364
Stream size : 7.04 GiB (98%)
Writing library : x264 core 148 r2623 d5b2374
Encoding settings : cabac=1 / ref=4 / deblock=1:-1:-1 / analyse=0x3:0x133 / me=umh / subme=9 / psy=1 / psy_rd=1.00:0.15 / mixed_ref=1 / me_range=24 / chroma_me=1 / trellis=2 / 8x8dct=1 / cqm=0 / deadzone=21,11 / fast_pskip=1 / chroma_qp_offset=-3 / threads=34 / lookahead_threads=5 / sliced_threads=0 / nr=150 / decimate=1 / interlaced=0 / bluray_compat=0 / constrained_intra=0 / bframes=8 / b_pyramid=2 / b_adapt=2 / b_bias=0 / direct=3 / weightb=1 / open_gop=0 / weightp=2 / keyint=120 / keyint_min=61 / scenecut=0 / intra_refresh=0 / rc_lookahead=120 / rc=crf / mbtree=1 / crf=18.0 / qcomp=0.60 / qpmin=0 / qpmax=69 / qpstep=4 / vbv_maxrate=15000 / vbv_bufsize=31250 / crf_max=0.0 / nal_hrd=vbr / filler=0 / ip_ratio=1.40 / aq=3:1.00
Default : Yes
Forced : No
Color range : Limited
Color primaries : BT.709
Transfer characteristics : BT.709
Matrix coefficients : BT.709

Audio
ID : 2
Format : E-AC-3
Format/Info : Enhanced Audio Coding 3
Format settings, Endianness : Big
Codec ID : A_EAC3
Duration : 1 h 14 min
Bit rate mode : Constant
Bit rate : 224 kb/s
Channel(s) : 2 channels
Channel positions : Front: L R
Sampling rate : 48.0 kHz
Frame rate : 187.500 FPS (256 spf)
Compression mode : Lossy
Stream size : 119 MiB (2%)
Language : English
Default : Yes
Forced : No

Text
ID : 3
Format : UTF-8
Codec ID : S_TEXT/UTF8
Codec ID/Info : UTF-8 Plain Text
Duration : 1 h 12 min
Bit rate : 61 b/s
Count of elements : 953
Stream size : 32.7 KiB (0%)
Language : English
Default : No
Forced : No

Menu
00:00:00.000 : en:(Unnamed scene)
00:03:48.000 : en:(Unnamed scene)
00:06:00.000 : en:(Unnamed scene)
00:09:04.000 : en:(Unnamed scene)
00:12:56.000 : en:(Unnamed scene)
00:15:33.000 : en:(Unnamed scene)
00:17:37.000 : en:(Unnamed scene)
00:19:22.000 : en:(Unnamed scene)
00:21:00.000 : en:(Unnamed scene)
00:23:39.000 : en:(Unnamed scene)
00:25:41.000 : en:(Unnamed scene)
00:29:05.000 : en:(Unnamed scene)
00:32:39.000 : en:(Unnamed scene)
00:37:07.000 : en:(Unnamed scene)
00:39:50.000 : en:(Unnamed scene)
00:42:06.000 : en:(Unnamed scene)
00:45:34.000 : en:(Unnamed scene)
00:47:46.000 : en:(Unnamed scene)
00:50:27.000 : en:(Unnamed scene)
00:53:43.000 : en:(Unnamed scene)
00:56:13.000 : en:(Unnamed scene)
00:59:18.000 : en:(Unnamed scene)
01:03:53.000 : en:(Unnamed scene)
01:06:43.000 : en:(Unnamed scene)
01:07:49.000 : en:(Unnamed scene)
01:13:26.000 : en:(Unnamed scene)


WEB-DL 1080p Screenshots

Brian's Song (1971)

Brian's Song (1971)

Brian's Song (1971)

Brian's Song (1971)

Brian's Song (1971)

Brian's Song (1971)

Brian's Song (1971)


Come Visit My Blog (•‿•)