Blackmail (1929)

Blackmail (1929)

Blackmail (1929) [Special Edition + Extras]
BDRip 1080p | MKV | AVC, 1440x1080, ~ 3.7 Mbps | 1hr 25mn | 3.23 GB
English: DTS, 2 ch, 1510 kbps; English (Commentary): AC3, 2 ch, 192 kbps
BDRip 720p | MKV | AVC, 960x720, ~ 2.5 Mbps | 1hr 25mn | 1.88 GB
English: AC3, 2 ch, 448 kbps; English (Commentary): AC3, 2 ch, 192 kbps
Subtitles: English
Genre: Crime, Film-Noir, Thriller
IMDB Rating: 7.0/10 (8.784 votes)


Director: Alfred Hitchcock
Writers: Charles Bennett (from the play by), Alfred Hitchcock (adapted by)
Stars: Anny Ondra, John Longden, Sara Allgood

From the Master of Suspense, Alfred Hitchcock, the legendary director of Notorious, Lifeboat, North by Northwest and Psycho comes this thriller about a woman fighting off a sleazy blackmailer. Blackmail was Hitchcock’s first full-length sound film and was only his second foray into the suspense genre. Grocer’s daughter Alice White (Anny Ondra, The Manxman) kills a man in self-defense when he tries to sexually assault her. Her policeman boyfriend, Detective Frank Webber (John Longden, The Skin Game), covers up for her, but she has been spotted leaving the scene by a petty criminal who starts to blackmail her. Based on a play by Charles Bennett (Foreign Correspondent, The 39 Steps) and co-starring Sara Allgood (The Lodger). This special edition also includes the 76-minute silent version of the film, with a new score by The Mont Alto Motion Picture Orchestra.

Distributor: Kino Lorber

Extras:
- Audio Commentary by Film Historian Tim Lucas
- The Silent Version of ‘Blackmail’ – Score by Mont Alto Motion Picture Orchestra
- 1.2:1 Version




General
Unique ID : 246936399918669527583089677589288016926 (0xB9C6387F8CBC791FB5235031C2EF5C1E)
Complete name : F:\Blackmail.1929.1p\Blackmail.1929.1p.mkv
Format : Matroska
Format version : Version 4 / Version 2
File size : 3.23 GiB
Duration : 1 h 25 min
Overall bit rate : 5 407 kb/s
Movie name : Release RSU75
Encoded date : UTC 2019-09-08 03:26:07
Writing application : mkvmerge v6.6.0 ('The Edge Of The In Between') built on Dec 1 2013 17:55:00
Writing library : libebml v1.3.0 + libmatroska v1.4.1

Video
ID : 1
Format : AVC
Format/Info : Advanced Video Codec
Format profile : High@L4.1
Format settings : CABAC / 4 Ref Frames
Format settings, CABAC : Yes
Format settings, ReFrames : 4 frames
Codec ID : V_MPEG4/ISO/AVC
Duration : 1 h 25 min
Bit rate : 3 700 kb/s
Width : 1 440 pixels
Height : 1 080 pixels
Display aspect ratio : 4:3
Frame rate mode : Constant
Frame rate : 23.976 (23976/1000) FPS
Color space : YUV
Chroma subsampling : 4:2:0
Bit depth : 8 bits
Scan type : Progressive
Bits/(Pixel*Frame) : 0.099
Stream size : 2.15 GiB (67%)
Writing library : x264 core 148 r2643 5c65704
Encoding settings : cabac=1 / ref=4 / deblock=1:0:0 / analyse=0x3:0x113 / me=umh / subme=8 / psy=1 / psy_rd=1.00:0.00 / mixed_ref=1 / me_range=24 / chroma_me=1 / trellis=1 / 8x8dct=1 / cqm=0 / deadzone=21,11 / fast_pskip=1 / chroma_qp_offset=-2 / threads=3 / lookahead_threads=1 / sliced_threads=0 / nr=0 / decimate=1 / interlaced=0 / bluray_compat=0 / constrained_intra=0 / bframes=3 / b_pyramid=0 / b_adapt=2 / b_bias=0 / direct=3 / weightb=1 / open_gop=0 / weightp=2 / keyint=250 / keyint_min=25 / scenecut=40 / intra_refresh=0 / rc_lookahead=40 / rc=abr / mbtree=1 / bitrate=3700 / ratetol=1.0 / qcomp=0.60 / qpmin=10 / qpmax=51 / qpstep=4 / ip_ratio=1.41 / aq=1:1.00
Language : English
Default : Yes
Forced : No

Audio #1
ID : 2
Format : DTS
Format/Info : Digital Theater Systems
Codec ID : A_DTS
Duration : 1 h 25 min
Bit rate mode : Constant
Bit rate : 1 509 kb/s
Channel(s) : 2 channels
Channel layout : L R
Sampling rate : 48.0 kHz
Frame rate : 93.750 FPS (512 SPF)
Bit depth : 16 bits
Compression mode : Lossy
Stream size : 924 MiB (28%)
Language : English
Default : Yes
Forced : No

Audio #2
ID : 3
Format : AC-3
Format/Info : Audio Coding 3
Commercial name : Dolby Digital
Codec ID : A_AC3
Duration : 1 h 25 min
Bit rate mode : Constant
Bit rate : 192 kb/s
Channel(s) : 2 channels
Channel layout : L R
Sampling rate : 48.0 kHz
Frame rate : 31.250 FPS (1536 SPF)
Bit depth : 16 bits
Compression mode : Lossy
Stream size : 118 MiB (4%)
Title : Commentary
Language : English
Service kind : Complete Main
Default : No
Forced : No

Text
ID : 4
Format : PGS
Muxing mode : zlib
Codec ID : S_HDMV/PGS
Codec ID/Info : Picture based subtitle format used on BDs/HD-DVDs
Language : English
Default : Yes
Forced : No

Menu
00:00:00.000 : en:Chapter 00
00:09:41.247 : en:Chapter 01
00:17:26.003 : en:Chapter 02
00:33:03.982 : en:Chapter 03
00:43:46.332 : en:Chapter 04
00:51:46.311 : en:Chapter 05
01:02:41.716 : en:Chapter 06
01:13:59.393 : en:Chapter 07
01:25:35.088 : en:Chapter 08





General
Unique ID : 184148508013727222596306027227135315221 (0x8A89B66BA10102758C56D208078F8D15)
Complete name : F:\Blackmail.1929.7p\Blackmail.1929.7p.mkv
Format : Matroska
Format version : Version 4 / Version 2
File size : 1.88 GiB
Duration : 1 h 25 min
Overall bit rate : 3 147 kb/s
Movie name : Release RSU75
Encoded date : UTC 2019-09-10 03:31:16
Writing application : mkvmerge v6.6.0 ('The Edge Of The In Between') built on Dec 1 2013 17:55:00
Writing library : libebml v1.3.0 + libmatroska v1.4.1

Video
ID : 1
Format : AVC
Format/Info : Advanced Video Codec
Format profile : High@L4.1
Format settings : CABAC / 4 Ref Frames
Format settings, CABAC : Yes
Format settings, ReFrames : 4 frames
Codec ID : V_MPEG4/ISO/AVC
Duration : 1 h 25 min
Bit rate : 2 500 kb/s
Width : 960 pixels
Height : 720 pixels
Display aspect ratio : 4:3
Frame rate mode : Constant
Frame rate : 23.976 (23976/1000) FPS
Color space : YUV
Chroma subsampling : 4:2:0
Bit depth : 8 bits
Scan type : Progressive
Bits/(Pixel*Frame) : 0.151
Stream size : 1.46 GiB (78%)
Writing library : x264 core 148 r2643 5c65704
Encoding settings : cabac=1 / ref=4 / deblock=1:0:0 / analyse=0x3:0x113 / me=umh / subme=8 / psy=1 / psy_rd=1.00:0.00 / mixed_ref=1 / me_range=24 / chroma_me=1 / trellis=1 / 8x8dct=1 / cqm=0 / deadzone=21,11 / fast_pskip=1 / chroma_qp_offset=-2 / threads=3 / lookahead_threads=1 / sliced_threads=0 / nr=0 / decimate=1 / interlaced=0 / bluray_compat=0 / constrained_intra=0 / bframes=3 / b_pyramid=0 / b_adapt=2 / b_bias=0 / direct=3 / weightb=1 / open_gop=0 / weightp=2 / keyint=250 / keyint_min=25 / scenecut=40 / intra_refresh=0 / rc_lookahead=40 / rc=abr / mbtree=1 / bitrate=2500 / ratetol=1.0 / qcomp=0.60 / qpmin=10 / qpmax=51 / qpstep=4 / ip_ratio=1.41 / aq=1:1.00
Language : English
Default : Yes
Forced : No

Audio #1
ID : 2
Format : AC-3
Format/Info : Audio Coding 3
Commercial name : Dolby Digital
Codec ID : A_AC3
Duration : 1 h 25 min
Bit rate mode : Constant
Bit rate : 448 kb/s
Channel(s) : 2 channels
Channel layout : L R
Sampling rate : 48.0 kHz
Frame rate : 31.250 FPS (1536 SPF)
Bit depth : 16 bits
Compression mode : Lossy
Stream size : 274 MiB (14%)
Language : English
Service kind : Complete Main
Default : Yes
Forced : No

Audio #2
ID : 3
Format : AC-3
Format/Info : Audio Coding 3
Commercial name : Dolby Digital
Codec ID : A_AC3
Duration : 1 h 25 min
Bit rate mode : Constant
Bit rate : 192 kb/s
Channel(s) : 2 channels
Channel layout : L R
Sampling rate : 48.0 kHz
Frame rate : 31.250 FPS (1536 SPF)
Bit depth : 16 bits
Compression mode : Lossy
Stream size : 118 MiB (6%)
Title : Commentary
Language : English
Service kind : Complete Main
Default : No
Forced : No

Text
ID : 4
Format : PGS
Muxing mode : zlib
Codec ID : S_HDMV/PGS
Codec ID/Info : Picture based subtitle format used on BDs/HD-DVDs
Language : English
Default : Yes
Forced : No

Menu
00:00:00.000 : en:Chapter 00
00:09:41.247 : en:Chapter 01
00:17:26.003 : en:Chapter 02
00:33:03.982 : en:Chapter 03
00:43:46.332 : en:Chapter 04
00:51:46.311 : en:Chapter 05
01:02:41.716 : en:Chapter 06
01:13:59.393 : en:Chapter 07
01:25:35.088 : en:Chapter 08




Screenshots 1080p (click to enlarge to original size):

Blackmail (1929)

Blackmail (1929)

Blackmail (1929)



Screenshots 720p (click to enlarge to original size):

Blackmail (1929)




–––––––––––––––––––––––––––––––––––––––-
>>> "Crime, Thriller" <<< OR >>> "BDRip" <<< OR >>> "Kino Lorber" <<<
–––––––––––––––––––––––––––––––––––––––-
>>> Visit Blog RSU75 Here <<<
–––––––––––––––––––––––––––––––––––––––-