Blackbeard's Ghost (1968)

Blackbeard's Ghost (1968)

Blackbeard's Ghost (1968)
BDRip 1080p | MKV | 1808x1080 | AVC@12.8 Mb/s | English AC3@320 kb/s
Subs: English | 2 channels | 1 h 47 min | 9.84 GB
Genre: Comedy, Family, Fantasy

On the Carolina coast, Godolphin College's new track coach lodges at Blackbeard's Inn, run by the Daughters of the Buccaneers who claim to be descendants of the notorious pirate and who risk losing their hotel to the local mobster.



General
Blackbeards.Ghost.1968.1080p.BluRay.x264-PSYCHD\Blackbeards.Ghost.1968.1080p.BluRay.x264-PSYCHD.mkv
Format : Matroska
Format version : Version 4 / Version 2
File size : 9.84 GiB
Duration : 1 h 47 min
Overall bit rate : 13.1 Mb/s
Encoded date : UTC 2010-02-22 21:41:29
Writing application : no_variable_data
Writing library : no_variable_data

Video
ID : 1
Format : AVC
Format/Info : Advanced Video Codec
Format profile : High@L4.1
Format settings, CABAC : Yes
Format settings, ReFrames : 4 frames
Codec ID : V_MPEG4/ISO/AVC
Duration : 1 h 47 min
Bit rate : 12.8 Mb/s
Width : 1 808 pixels
Height : 1 080 pixels
Display aspect ratio : 5:3
Frame rate mode : Constant
Frame rate : 23.976 (24000/1001) FPS
Color space : YUV
Chroma subsampling : 4:2:0
Bit depth : 8 bits
Scan type : Progressive
Bits/(Pixel*Frame) : 0.274
Stream size : 9.40 GiB (96%)
Writing library : x264 core 148 r2638 7599210
Encoding settings : cabac=1 / ref=4 / deblock=1:-3:-3 / analyse=0x3:0x113 / me=umh / subme=8 / psy=1 / psy_rd=1.15:0.00 / mixed_ref=1 / me_range=32 / chroma_me=1 / trellis=1 / 8x8dct=1 / cqm=0 / deadzone=21,11 / fast_pskip=1 / chroma_qp_offset=-2 / threads=24 / lookahead_threads=4 / sliced_threads=0 / nr=0 / decimate=1 / interlaced=0 / bluray_compat=0 / constrained_intra=0 / bframes=3 / b_pyramid=2 / b_adapt=2 / b_bias=0 / direct=3 / weightb=1 / open_gop=0 / weightp=2 / keyint=240 / keyint_min=24 / scenecut=40 / intra_refresh=0 / rc_lookahead=50 / rc=2pass / mbtree=1 / bitrate=12842 / ratetol=1.0 / qcomp=0.60 / qpmin=0 / qpmax=69 / qpstep=4 / cplxblur=20.0 / qblur=0.5 / ip_ratio=1.40 / aq=3:0.80
Language : English
Default : Yes
Forced : No
Statistics Tags Issue : no_variable_data 1970-01-01 00:00:00 / no_variable_data 2010-02-22 21:41:29
FromStats_BitRate : 12840006
FromStats_Duration : 01:46:59.246000000
FromStats_FrameCount : 153908
FromStats_StreamSize : 10302894853

Audio
ID : 2
Format : AC-3
Format/Info : Audio Coding 3
Mode extension : CM (complete main)
Format settings, Endianness : Big
Codec ID : A_AC3
Duration : 1 h 47 min
Bit rate mode : Constant
Bit rate : 320 kb/s
Channel(s) : 2 channels
Channel positions : Front: L R
Sampling rate : 48.0 kHz
Frame rate : 31.250 FPS (1536 spf)
Bit depth : 16 bits
Compression mode : Lossy
Stream size : 245 MiB (2%)
Language : English
Default : Yes
Forced : No
Statistics Tags Issue : no_variable_data 1970-01-01 00:00:00 / no_variable_data 2010-02-22 21:41:29
FromStats_BitRate : 320000
FromStats_Duration : 01:47:09.472000000
FromStats_FrameCount : 200921
FromStats_StreamSize : 257178880

Text #1
ID : 3
Format : UTF-8
Codec ID : S_TEXT/UTF8
Codec ID/Info : UTF-8 Plain Text
Language : English
Default : No
Forced : No
Statistics Tags Issue : no_variable_data 1970-01-01 00:00:00 / no_variable_data 2010-02-22 21:41:29
FromStats_BitRate : 70
FromStats_Duration : 01:43:05.178000000
FromStats_FrameCount : 1699
FromStats_StreamSize : 54494

Text #2
ID : 4
Format : UTF-8
Codec ID : S_TEXT/UTF8
Codec ID/Info : UTF-8 Plain Text
Title : SDH
Language : English
Default : No
Forced : No
Statistics Tags Issue : no_variable_data 1970-01-01 00:00:00 / no_variable_data 2010-02-22 21:41:29
FromStats_BitRate : 70
FromStats_Duration : 01:46:10.321000000
FromStats_FrameCount : 1747
FromStats_StreamSize : 56003

Menu
00:00:00.000 : en:00:00:00.000
00:08:46.860 : en:00:08:46.860
00:18:22.101 : en:00:18:22.101
00:29:32.270 : en:00:29:32.270
00:36:23.431 : en:00:36:23.431
00:47:48.324 : en:00:47:48.324
00:58:23.083 : en:00:58:23.083
01:06:31.613 : en:01:06:31.613
01:13:10.177 : en:01:13:10.177
01:21:43.315 : en:01:21:43.315
01:29:51.595 : en:01:29:51.595
01:39:27.503 : en:01:39:27.503


BDRip 1080p Screenshots

Blackbeard's Ghost (1968)

Blackbeard's Ghost (1968)

Blackbeard's Ghost (1968)

Blackbeard's Ghost (1968)


Come Visit My Blog (•‿•)