Black Wax (1983)

Black Wax (1983)

Black Wax (1983)
WEBRip | 1440x1080 | .MKV/AVC @ 8258 Kbps | 1h 18min | 4.77 GiB
Audio: English EAC3 224 kbps, 2 channels | Subs: None
Genre: Documentary

BLACK WAX is a musical-political entertainment film produced and directed by Robert Mugge. It centers on the late African American poet-singer-songwriter Gil Scott-Heron - the man Melody Maker called "the most dangerous musician alive" and many dubbed the forefather of rap music - and his Midnight Band. The entertainment is political. HD from the original 16mm film and lovingly restored.
More info


General
Unique ID : 241817802351448961870364438950641171307 (0xB5EC6A2762628741872D0DD15FC07B6B)
Complete name : Black.Wax.1983.1080p.WEBRip.mkv
Format : Matroska
Format version : Version 4 / Version 2
File size : 4.77 GiB
Duration : 1 h 18 min
Overall bit rate mode : Variable
Overall bit rate : 8 654 kb/s

Video
ID : 1
Format : AVC
Format/Info : Advanced Video Codec
Format profile : High@L4
Format settings, CABAC : Yes
Format settings, ReFrames : 4 frames
Codec ID : V_MPEG4/ISO/AVC
Duration : 1 h 18 min
Bit rate mode : Variable
Bit rate : 8 258 kb/s
Maximum bit rate : 15.0 Mb/s
Width : 1 440 pixels
Height : 1 080 pixels
Display aspect ratio : 4:3
Frame rate mode : Constant
Frame rate : 30.000 FPS
Color space : YUV
Chroma subsampling : 4:2:0
Bit depth : 8 bits
Scan type : Progressive
Bits/(Pixel*Frame) : 0.177
Stream size : 4.56 GiB (95%)
Writing library : x264 core 148 r2623 d5b2374
Encoding settings : cabac=1 / ref=4 / deblock=1:-1:-1 / analyse=0x3:0x133 / me=umh / subme=9 / psy=1 / psy_rd=1.00:0.15 / mixed_ref=1 / me_range=24 / chroma_me=1 / trellis=2 / 8x8dct=1 / cqm=0 / deadzone=21,11 / fast_pskip=1 / chroma_qp_offset=-3 / threads=34 / lookahead_threads=5 / sliced_threads=0 / nr=150 / decimate=1 / interlaced=0 / bluray_compat=0 / constrained_intra=0 / bframes=8 / b_pyramid=2 / b_adapt=2 / b_bias=0 / direct=3 / weightb=1 / open_gop=0 / weightp=2 / keyint=150 / keyint_min=76 / scenecut=0 / intra_refresh=0 / rc_lookahead=150 / rc=crf / mbtree=1 / crf=18.0 / qcomp=0.60 / qpmin=0 / qpmax=69 / qpstep=4 / vbv_maxrate=15000 / vbv_bufsize=31250 / crf_max=0.0 / nal_hrd=vbr / filler=0 / ip_ratio=1.40 / aq=3:1.00
Default : Yes
Forced : No
Color range : Limited
Color primaries : BT.709
Transfer characteristics : BT.709
Matrix coefficients : BT.709
Statistics Tags Issue : mkvmerge v12.0.0 ('Trust / Lust') 64bit 2017-06-30 20:54:02 / mkvmerge v12.0.0 ('Trust / Lust') 64bit
FromStats_BitRate : 8427597
FromStats_Duration : 01:18:58.400000000
FromStats_FrameCount : 142152
FromStats_StreamSize : 4991666219

Audio
ID : 2
Format : E-AC-3
Format/Info : Enhanced Audio Coding 3
Format settings, Endianness : Big
Codec ID : A_EAC3
Duration : 1 h 18 min
Bit rate mode : Constant
Bit rate : 224 kb/s
Channel(s) : 2 channels
Channel positions : Front: L R
Sampling rate : 48.0 kHz
Frame rate : 187.500 FPS (256 spf)
Compression mode : Lossy
Stream size : 127 MiB (3%)
Language : English
Service kind : Complete Main
Default : Yes
Forced : No
Statistics Tags Issue : mkvmerge v12.0.0 ('Trust / Lust') 64bit 2017-06-30 20:54:02 / mkvmerge v12.0.0 ('Trust / Lust') 64bit
FromStats_BitRate : 224000
FromStats_Duration : 01:18:58.336000000
FromStats_FrameCount : 148073
FromStats_StreamSize : 132673408


Screenshots:

Black Wax (1983)

Black Wax (1983)

Black Wax (1983)

Black Wax (1983)