Black Sunday (1977)

Black Sunday (1977)

Black Sunday (1977)
WEB-DL 720p | 1280 x 546 | MKV/AVC@3958 Kbps
English AC3@384 Kbps, 6 ch | Subs: English | 2 h 23 min | 4.42 GB
Genre: Action, Drama, Thriller

Black Sunday is the powerful story of a Black September terrorist group attempting to blow up a Goodyear blimp hovering over the Super Bowl stadium with 80,000 people and the president of the United States in attendance.



General
Black.Sunday.1977.720p.WEB-DL.DD5.1.H264-FGT\Black.Sunday.1977.720p.WEB-DL.DD5.1.H264-FGT.mkv
Format : Matroska
Format version : Version 4 / Version 2
File size : 4.43 GiB
Duration : 2 h 23 min
Overall bit rate : 4 430 kb/s
Movie name : Black.Sunday.1977.720p.WEB-DL.DD5.1.H264-FGT
Encoded date : UTC 2015-10-12 09:53:48
Writing application : mkvmerge v8.3.0 ('Over the Horizon') 64bit
Writing library : libebml v1.3.1 + libmatroska v1.4.2
Cover : Yes
Attachments : cover.jpg / cover_land.jpg / small_cover.jpg / small_cover_land.jpg

Video
ID : 1
Format : AVC
Format/Info : Advanced Video Codec
Format profile : High@L3.1
Format settings, CABAC : No
Format settings, ReFrames : 2 frames
Codec ID : V_MPEG4/ISO/AVC
Duration : 2 h 23 min
Bit rate : 3 958 kb/s
Width : 1 280 pixels
Height : 546 pixels
Display aspect ratio : 2.35:1
Frame rate mode : Constant
Frame rate : 23.976 FPS
Color space : YUV
Chroma subsampling : 4:2:0
Bit depth : 8 bits
Scan type : Progressive
Bits/(Pixel*Frame) : 0.236
Stream size : 3.96 GiB (89%)
Title : Black.Sunday.1977.720p.WEB-DL.DD5.1.H264-FGT
Language : English
Default : Yes
Forced : No
Color range : Limited
Color primaries : BT.709
Transfer characteristics : BT.709
Matrix coefficients : BT.709

Audio
ID : 2
Format : AC-3
Format/Info : Audio Coding 3
Mode extension : CM (complete main)
Format settings, Endianness : Big
Codec ID : A_AC3
Duration : 2 h 23 min
Bit rate mode : Constant
Bit rate : 384 kb/s
Channel(s) : 6 channels
Channel positions : Front: L C R, Side: L R, LFE
Sampling rate : 48.0 kHz
Frame rate : 31.250 FPS (1536 spf)
Bit depth : 16 bits
Compression mode : Lossy
Stream size : 393 MiB (9%)
Title : Black.Sunday.1977.720p.WEB-DL.DD5.1.H264-FGT
Language : English
Default : Yes
Forced : No

Text
ID : 3
Format : UTF-8
Codec ID : S_TEXT/UTF8
Codec ID/Info : UTF-8 Plain Text
Language : English
Default : Yes
Forced : No


Screenshots WEB-DL 720p

Black Sunday (1977)

Black Sunday (1977)

Black Sunday (1977)

Black Sunday (1977)