Black Jack (1968)

Black Jack (1968)

Black Jack (1968)
BDRip | MKV | 1920x1080 | English | H264 @ 5760 kbps | AC-3 @ 192 kbps | 1 h 39 min | 4.14 GiB
Genre: Western

Black Jack Murphy (Robert Woods) is the brains in an outfit of outlaws who rob the bank at Tusca City. All goes to plan with the heist but once the loot is safely obtained Jack's men lose no time in trying to double cross him. Wily Jack manages to outfox them at first and gets away with the cash but they soon catch up with him again and not only make off with the money but leave him crippled and carrying multiple causes for wanting revenge. This need for amends possesses Jack with an all consuming passion and he sets out to get even with each of his unfaithful former compadres but has his particular sights set on Indian Joe (Mimmo Palmara) and Sanchez (Rik Battaglia) who abused and killed his beloved sister. Source: SWDB www.spaghetti-western.net

b911192ff07044f99928e8e48726394a.mkv (4.1 GB)



General
Complete name : ./b911192ff07044f99928e8e48726394a.mkv
Format : Matroska
Format version : Version 4 / Version 2
File size : 4.14 GiB
Duration : 1 h 39 min
Overall bit rate : 5 953 kb/s
Encoded date : UTC 2019-03-04 23:26:30 / UTC 2019-03-04T15:30:10Z
Writing application : mkvmerge v31.0.0 ('Dolores In A Shoestand') 64-bit
Writing library : libebml v1.3.6 + libmatroska v1.4.9 / Lavf57.7.2

Video
ID : 1
Format : AVC
Format/Info : Advanced Video Codec
Format profile : High@L4
Format settings : CABAC / 4 Ref Frames
Format settings, CABAC : Yes
Format settings, RefFrames : 4 frames
Codec ID : V_MPEG4/ISO/AVC
Duration : 1 h 39 min
Bit rate : 5 760 kb/s
Width : 1 920 pixels
Height : 1 080 pixels
Display aspect ratio : 16:9
Frame rate mode : Constant
Frame rate : 23.976 (24000/1001) FPS
Color space : YUV
Chroma subsampling : 4:2:0
Bit depth : 8 bits
Scan type : Progressive
Bits/(Pixel*Frame) : 0.116
Stream size : 3.92 GiB (95%)
Writing library : x264 core 155 r2901 7d0ff22
Encoding settings : cabac=1 / ref=4 / deblock=1:-3:-3 / analyse=0x3:0x133 / me=umh / subme=9 / psy=1 / psy_rd=1.10:0.25 / mixed_ref=1 / me_range=32 / chroma_me=1 / trellis=2 / 8x8dct=1 / cqm=0 / deadzone=6,6 / fast_pskip=1 / chroma_qp_offset=-4 / threads=24 / lookahead_threads=2 / sliced_threads=0 / nr=0 / decimate=1 / interlaced=0 / bluray_compat=0 / constrained_intra=0 / bframes=6 / b_pyramid=2 / b_adapt=2 / b_bias=0 / direct=3 / weightb=1 / open_gop=0 / weightp=2 / keyint=240 / keyint_min=24 / scenecut=40 / intra_refresh=0 / rc_lookahead=40 / rc=2pass / mbtree=1 / bitrate=5760 / ratetol=1.0 / qcomp=0.60 / qpmin=0 / qpmax=69 / qpstep=4 / cplxblur=20.0 / qblur=0.5 / vbv_maxrate=20000 / vbv_bufsize=25000 / nal_hrd=none / filler=0 / ip_ratio=1.40 / aq=1:1.00
Default : Yes
Forced : No
Color range : Limited
Color primaries : BT.709
Transfer characteristics : BT.709
Matrix coefficients : BT.709
Statistics Tags Issue : mkvmerge v31.0.0 ('Dolores In A Shoestand') 64-bit 2019-03-04 23:26:30 / mkvmerge v31.0.0 ('Dolores In A Shoestand') 64-bit 2019-03-04 23:26:30 / UTC 2019-03-04T15:30:10Z
FromStats_BitRate : 5759636
FromStats_Duration : 01:39:28.963000000
FromStats_FrameCount : 143112
FromStats_StreamSize : 4297381870

Audio
ID : 2
Format : AC-3
Format/Info : Audio Coding 3
Format settings, Endianness : Big
Codec ID : A_AC3
Duration : 1 h 39 min
Bit rate mode : Constant
Bit rate : 192 kb/s
Channel(s) : 2 channels
Channel positions : Front: L R
Sampling rate : 48.0 kHz
Frame rate : 31.250 FPS (1536 SPF)
Bit depth : 16 bits
Compression mode : Lossy
Stream size : 137 MiB (3%)
Title : Stereo
Language : English
Service kind : Complete Main
Default : Yes
Forced : No
Statistics Tags Issue : mkvmerge v31.0.0 ('Dolores In A Shoestand') 64-bit 2019-03-04 23:26:30 / mkvmerge v31.0.0 ('Dolores In A Shoestand') 64-bit 2019-03-04 23:26:30 / UTC 2019-03-04T15:30:10Z
FromStats_BitRate : 192000
FromStats_Duration : 01:39:28.960000000
FromStats_FrameCount : 186530
FromStats_StreamSize : 143255040





Black Jack (1968)


Black Jack (1968)


Black Jack (1968)


Black Jack (1968)


Black Jack (1968)