Black Christmas (1974)

Black Christmas (1974)

Black Christmas (1974)
BDRip | MKV | 1920x1038 | English / English / English / English / English | H264 @ 17728 kbps | DTS @ 1509 kbps | 1 h 37 min | 14.0 GiB
Subtitles: English
Genre: Horror, Mystery, Thriller

A sorority house is terrorized by a stranger who makes frightening phone calls and then murders the sorority sisters during Christmas break.

03a51ad41799461586524c3c3968393c.mkv (14.0 GB)



General
Unique ID : 59472740631727757427563204591714070895 (0x2CBE08802BE7E78BBF21C8902AE8716F)
Complete name : ./03a51ad41799461586524c3c3968393c.mkv
Format : Matroska
Format version : Version 4 / Version 2
File size : 14.0 GiB
Duration : 1 h 37 min
Overall bit rate : 20.4 Mb/s
Encoded date : UTC 2018-05-19 04:46:33 / UTC 2018-05-17T01:44:48Z
Writing application : mkvmerge v19.0.0 ('Brave Captain') 64-bit
Writing library : libebml v1.3.5 + libmatroska v1.4.8 / Lavf57.7.2

Video
ID : 1
Format : AVC
Format/Info : Advanced Video Codec
Format profile : High@L4.1
Format settings : CABAC / 4 Ref Frames
Format settings, CABAC : Yes
Format settings, RefFrames : 4 frames
Codec ID : V_MPEG4/ISO/AVC
Duration : 1 h 37 min
Bit rate : 17.7 Mb/s
Width : 1 920 pixels
Height : 1 038 pixels
Display aspect ratio : 1.85:1
Frame rate mode : Constant
Frame rate : 23.976 (24000/1001) FPS
Color space : YUV
Chroma subsampling : 4:2:0
Bit depth : 8 bits
Scan type : Progressive
Bits/(Pixel*Frame) : 0.371
Stream size : 12.1 GiB (87%)
Writing library : x264 core 148 r2708 86b7198
Encoding settings : cabac=1 / ref=4 / deblock=1:-3:-3 / analyse=0x3:0x133 / me=umh / subme=9 / psy=1 / psy_rd=1.00:0.00 / mixed_ref=1 / me_range=24 / chroma_me=1 / trellis=2 / 8x8dct=1 / cqm=0 / deadzone=21,11 / fast_pskip=0 / chroma_qp_offset=-2 / threads=12 / lookahead_threads=1 / sliced_threads=0 / nr=0 / decimate=1 / interlaced=0 / bluray_compat=0 / constrained_intra=0 / bframes=6 / b_pyramid=2 / b_adapt=2 / b_bias=0 / direct=3 / weightb=1 / open_gop=0 / weightp=2 / keyint=240 / keyint_min=24 / scenecut=40 / intra_refresh=0 / rc_lookahead=60 / rc=crf / mbtree=1 / crf=20.0 / qcomp=0.60 / qpmin=0 / qpmax=69 / qpstep=4 / vbv_maxrate=62500 / vbv_bufsize=78125 / crf_max=0.0 / nal_hrd=none / filler=0 / ip_ratio=1.40 / aq=1:1.00
Default : Yes
Forced : No
Color range : Limited
Color primaries : BT.709
Transfer characteristics : BT.709
Matrix coefficients : BT.709
Statistics Tags Issue : mkvmerge v19.0.0 ('Brave Captain') 64-bit 2018-05-19 04:46:33 / mkvmerge v19.0.0 ('Brave Captain') 64-bit 2018-05-19 04:46:33 / UTC 2018-05-17T01:44:48Z
FromStats_BitRate : 18105881
FromStats_Duration : 01:37:51.616000000
FromStats_FrameCount : 140777
FromStats_StreamSize : 13288848004

Audio #1
ID : 2
Format : DTS
Format/Info : Digital Theater Systems
Mode : 16
Format settings, Endianness : Big
Codec ID : A_DTS
Duration : 1 h 37 min
Bit rate mode : Constant
Bit rate : 1 509 kb/s
Channel(s) : 6 channels
Channel positions : Front: L C R, Side: L R, LFE
Sampling rate : 48.0 kHz
Frame rate : 93.750 FPS (512 SPF)
Bit depth : 24 bits
Compression mode : Lossy
Stream size : 1.03 GiB (7%)
Title : DTS 5.1 Audio
Language : English
Default : Yes
Forced : No
Statistics Tags Issue : mkvmerge v19.0.0 ('Brave Captain') 64-bit 2018-05-19 04:46:33 / mkvmerge v19.0.0 ('Brave Captain') 64-bit 2018-05-19 04:46:33 / UTC 2018-05-17T01:44:48Z
FromStats_BitRate : 1509001
FromStats_Duration : 01:37:51.563000000
FromStats_FrameCount : 550459
FromStats_StreamSize : 1107524768

Audio #2
ID : 3
Format : AC-3
Format/Info : Audio Coding 3
Format settings, Endianness : Big
Codec ID : A_AC3
Duration : 1 h 37 min
Bit rate mode : Constant
Bit rate : 192 kb/s
Channel(s) : 2 channels
Channel positions : Front: L R
Sampling rate : 48.0 kHz
Frame rate : 31.250 FPS (1536 SPF)
Bit depth : 16 bits
Compression mode : Lossy
Stream size : 134 MiB (1%)
Title : Commentary with Director Bob Clark
Language : English
Service kind : Complete Main
Default : No
Forced : No
Statistics Tags Issue : mkvmerge v19.0.0 ('Brave Captain') 64-bit 2018-05-19 04:46:33 / mkvmerge v19.0.0 ('Brave Captain') 64-bit 2018-05-19 04:46:33 / UTC 2018-05-17T01:44:48Z
FromStats_BitRate : 192000
FromStats_Duration : 01:37:51.616000000
FromStats_FrameCount : 183488
FromStats_StreamSize : 140918784

Audio #3
ID : 4
Format : AC-3
Format/Info : Audio Coding 3
Format settings, Endianness : Big
Codec ID : A_AC3
Duration : 1 h 37 min
Bit rate mode : Constant
Bit rate : 192 kb/s
Channel(s) : 2 channels
Channel positions : Front: L R
Sampling rate : 48.0 kHz
Frame rate : 31.250 FPS (1536 SPF)
Bit depth : 16 bits
Compression mode : Lossy
Stream size : 134 MiB (1%)
Title : Commentary with Actors John Saxon and Keir Dullea
Language : English
Service kind : Complete Main
Default : No
Forced : No
Statistics Tags Issue : mkvmerge v19.0.0 ('Brave Captain') 64-bit 2018-05-19 04:46:33 / mkvmerge v19.0.0 ('Brave Captain') 64-bit 2018-05-19 04:46:33 / UTC 2018-05-17T01:44:48Z
FromStats_BitRate : 192000
FromStats_Duration : 01:37:51.616000000
FromStats_FrameCount : 183488
FromStats_StreamSize : 140918784

Audio #4
ID : 5
Format : AC-3
Format/Info : Audio Coding 3
Format settings, Endianness : Big
Codec ID : A_AC3
Duration : 1 h 37 min
Bit rate mode : Constant
Bit rate : 192 kb/s
Channel(s) : 2 channels
Channel positions : Front: L R
Sampling rate : 48.0 kHz
Frame rate : 31.250 FPS (1536 SPF)
Bit depth : 16 bits
Compression mode : Lossy
Stream size : 134 MiB (1%)
Title : Commentary with Billy (Actor Nick Mancuso)
Language : English
Service kind : Complete Main
Default : No
Forced : No
Statistics Tags Issue : mkvmerge v19.0.0 ('Brave Captain') 64-bit 2018-05-19 04:46:33 / mkvmerge v19.0.0 ('Brave Captain') 64-bit 2018-05-19 04:46:33 / UTC 2018-05-17T01:44:48Z
FromStats_BitRate : 192000
FromStats_Duration : 01:37:51.616000000
FromStats_FrameCount : 183488
FromStats_StreamSize : 140918784

Audio #5
ID : 6
Format : AC-3
Format/Info : Audio Coding 3
Format settings, Endianness : Big
Codec ID : A_AC3
Duration : 1 h 37 min
Bit rate mode : Constant
Bit rate : 192 kb/s
Channel(s) : 2 channels
Channel positions : Front: L R
Sampling rate : 48.0 kHz
Frame rate : 31.250 FPS (1536 SPF)
Bit depth : 16 bits
Compression mode : Lossy
Stream size : 134 MiB (1%)
Title : Audio Interview with Director Bob Clark
Language : English
Service kind : Complete Main
Default : No
Forced : No
Statistics Tags Issue : mkvmerge v19.0.0 ('Brave Captain') 64-bit 2018-05-19 04:46:33 / mkvmerge v19.0.0 ('Brave Captain') 64-bit 2018-05-19 04:46:33 / UTC 2018-05-17T01:44:48Z
FromStats_BitRate : 192000
FromStats_Duration : 01:37:51.616000000
FromStats_FrameCount : 183488
FromStats_StreamSize : 140918784

Text
ID : 7
Format : PGS
Muxing mode : zlib
Codec ID : S_HDMV/PGS
Codec ID/Info : Picture based subtitle format used on BDs/HD-DVDs
Language : English
Default : No
Forced : No
Statistics Tags Issue : mkvmerge v19.0.0 ('Brave Captain') 64-bit 2018-05-19 04:46:33 / mkvmerge v19.0.0 ('Brave Captain') 64-bit 2018-05-19 04:46:33 / UTC 2018-05-17T01:44:48Z
FromStats_BitRate : 36915
FromStats_Duration : 01:37:40.980000000
FromStats_FrameCount : 3092
FromStats_StreamSize : 27045475

Menu
00:00:00.000 : :Chapter 1
00:09:01.583 : :Chapter 2
00:16:25.193 : :Chapter 3
00:24:41.814 : :Chapter 4
00:32:18.895 : :Chapter 5
00:41:32.699 : :Chapter 6
00:49:59.788 : :Chapter 7
00:58:55.407 : :Chapter 8
01:05:44.858 : :Chapter 9
01:13:33.701 : :Chapter 10
01:20:47.634 : :Chapter 11
01:29:53.305 : :Chapter 12





Black Christmas (1974)


Black Christmas (1974)


Black Christmas (1974)


Black Christmas (1974)


Black Christmas (1974)