Beneath the 12-Mile Reef (1953)

Beneath the 12-Mile Reef (1953)

Beneath the 12-Mile Reef (1953)
BRRip | AVI | 720x280 | XviD@1597 kb/s | English MP3@192 kb/s | 2 channels | 1 h 41 min | 1.28 GB
BDRip 720p | MKV | 1280x496 | AVC@4625 kb/s | English DTS@1509 kb/s
6 channels | 1 h 41 min | 4.37 GB
BDRip 1080p | MKV | 1920x752 | AVC@9645 kb/s | English DTS@1509 kb/s
6 channels | 1 h 41 min | 7.94 GB
Genre: Adventure

Fierce competition among sponge fishermen forces a Greek-American family to fish in the dangerous 12-mile reef area off the western coast of Florida.

IMDB - Nominated for 1 Oscar. Another 1 nomination.


General
Format : AVI
Format/Info : Audio Video Interleave
Format profile : OpenDML
File size : 1.28 GiB
Duration : 1 h 41 min
Overall bit rate : 1 805 kb/s

Video
ID : 0
Format : MPEG-4 Visual
Format profile : Simple@L5
Format settings, BVOP : No
Format settings, QPel : No
Format settings, GMC : No warppoints
Format settings, Matrix : Default (H.263)
Codec ID : XVID
Codec ID/Hint : XviD
Duration : 1 h 41 min
Bit rate : 1 597 kb/s
Width : 720 pixels
Height : 280 pixels
Display aspect ratio : 2.581
Original display aspect ratio : 2.582
Frame rate : 23.976 (24000/1001) FPS
Color space : YUV
Chroma subsampling : 4:2:0
Bit depth : 8 bits
Scan type : Progressive
Compression mode : Lossy
Bits/(Pixel*Frame) : 0.330
Stream size : 1.14 GiB (89%)
Writing library : Lavc57.89.100

Audio
ID : 1
Format : MPEG Audio
Format version : Version 1
Format profile : Layer 3
Mode : Joint stereo
Codec ID : 55
Codec ID/Hint : MP3
Duration : 1 h 41 min
Bit rate mode : Constant
Bit rate : 192 kb/s
Channel(s) : 2 channels
Sampling rate : 48.0 kHz
Compression mode : Lossy
Stream size : 140 MiB (11%)
Alignment : Aligned on interleaves
Interleave, duration : 24 ms (0.58 video frame)
Interleave, preload duration : 24 ms
Writing library : LAME3.99.5

General
Beneath.the.12-Mile.Reef.1953.720p.BluRay.x264-SADPANDA\Beneath.the.12-Mile.Reef.1953.720p.BluRay.x264-SADPANDA.mkv
Format : Matroska
Format version : Version 4 / Version 2
File size : 4.37 GiB
Duration : 1 h 41 min
Overall bit rate : 6 137 kb/s
Encoded date : UTC 2017-11-23 07:57:11
Writing application : mkvmerge v18.0.0 ('Apricity') 64-bit
Writing library : libebml v1.3.5 + libmatroska v1.4.8

Video
ID : 1
Format : AVC
Format/Info : Advanced Video Codec
Format profile : High@L4.1
Format settings, CABAC : Yes
Format settings, ReFrames : 5 frames
Codec ID : V_MPEG4/ISO/AVC
Duration : 1 h 41 min
Bit rate : 4 625 kb/s
Width : 1 280 pixels
Height : 496 pixels
Display aspect ratio : 2.581
Frame rate mode : Constant
Frame rate : 23.976 (24000/1001) FPS
Color space : YUV
Chroma subsampling : 4:2:0
Bit depth : 8 bits
Scan type : Progressive
Bits/(Pixel*Frame) : 0.304
Stream size : 3.29 GiB (75%)
Writing library : x264 core 152 r2851 ba24899
Encoding settings : cabac=1 / ref=5 / deblock=1:-3:-3 / analyse=0x3:0x113 / me=umh / subme=8 / psy=1 / psy_rd=1.00:0.25 / mixed_ref=1 / me_range=24 / chroma_me=1 / trellis=1 / 8x8dct=1 / cqm=0 / deadzone=21,11 / fast_pskip=1 / chroma_qp_offset=-4 / threads=15 / lookahead_threads=2 / sliced_threads=0 / nr=0 / decimate=1 / interlaced=0 / bluray_compat=0 / constrained_intra=0 / bframes=3 / b_pyramid=2 / b_adapt=1 / b_bias=0 / direct=3 / weightb=1 / open_gop=0 / weightp=2 / keyint=240 / keyint_min=24 / scenecut=40 / intra_refresh=0 / rc_lookahead=50 / rc=2pass / mbtree=1 / bitrate=4625 / ratetol=1.0 / qcomp=0.60 / qpmin=0 / qpmax=69 / qpstep=4 / cplxblur=20.0 / qblur=0.5 / ip_ratio=1.40 / aq=1:0.75
Default : Yes
Forced : No

Audio
ID : 2
Format : DTS
Format/Info : Digital Theater Systems
Mode : 16
Format settings, Endianness : Big
Codec ID : A_DTS
Duration : 1 h 41 min
Bit rate mode : Constant
Bit rate : 1 509 kb/s
Channel(s) : 6 channels
Channel positions : Front: L C R, Side: L R, LFE
Sampling rate : 48.0 kHz
Frame rate : 93.750 FPS (512 spf)
Bit depth : 24 bits
Compression mode : Lossy
Stream size : 1.07 GiB (25%)
Language : English
Default : Yes
Forced : No

Menu
00:00:00.000 : en:00:00:00.000
00:04:47.287 : en:00:04:47.287
00:07:42.712 : en:00:07:42.712
00:11:11.004 : en:00:11:11.004
00:14:49.555 : en:00:14:49.555
00:20:40.948 : en:00:20:40.948
00:24:15.871 : en:00:24:15.871
00:28:24.286 : en:00:28:24.286
00:32:43.003 : en:00:32:43.003
00:38:19.964 : en:00:38:19.964
00:43:20.890 : en:00:43:20.890
00:46:01.676 : en:00:46:01.676
00:49:11.198 : en:00:49:11.198
00:55:01.006 : en:00:55:01.006
01:00:04.434 : en:01:00:04.434
01:03:13.331 : en:01:03:13.331
01:08:00.451 : en:01:08:00.451
01:12:54.078 : en:01:12:54.078
01:15:22.601 : en:01:15:22.601
01:19:43.404 : en:01:19:43.404
01:24:24.977 : en:01:24:24.977
01:28:17.626 : en:01:28:17.626
01:32:20.076 : en:01:32:20.076
01:36:47.427 : en:01:36:47.427

General
Beneath.the.12-Mile.Reef.1953.1080p.BluRay.x264-SADPANDA\Beneath.the.12-Mile.Reef.1953.1080p.BluRay.x264-SADPANDA.mkv
Format : Matroska
Format version : Version 4 / Version 2
File size : 7.94 GiB
Duration : 1 h 41 min
Overall bit rate : 11.2 Mb/s
Encoded date : UTC 2017-11-23 15:23:48
Writing application : mkvmerge v18.0.0 ('Apricity') 64-bit
Writing library : libebml v1.3.5 + libmatroska v1.4.8

Video
ID : 1
Format : AVC
Format/Info : Advanced Video Codec
Format profile : High@L4.1
Format settings, CABAC : Yes
Format settings, ReFrames : 5 frames
Codec ID : V_MPEG4/ISO/AVC
Duration : 1 h 41 min
Bit rate : 9 645 kb/s
Width : 1 920 pixels
Height : 752 pixels
Display aspect ratio : 2.553
Frame rate mode : Constant
Frame rate : 23.976 (24000/1001) FPS
Color space : YUV
Chroma subsampling : 4:2:0
Bit depth : 8 bits
Scan type : Progressive
Bits/(Pixel*Frame) : 0.279
Stream size : 6.87 GiB (86%)
Writing library : x264 core 152 r2851 ba24899
Encoding settings : cabac=1 / ref=5 / deblock=1:-3:-3 / analyse=0x3:0x113 / me=umh / subme=8 / psy=1 / psy_rd=1.00:0.25 / mixed_ref=1 / me_range=24 / chroma_me=1 / trellis=1 / 8x8dct=1 / cqm=0 / deadzone=21,11 / fast_pskip=1 / chroma_qp_offset=-4 / threads=23 / lookahead_threads=3 / sliced_threads=0 / nr=0 / decimate=1 / interlaced=0 / bluray_compat=0 / constrained_intra=0 / bframes=3 / b_pyramid=2 / b_adapt=1 / b_bias=0 / direct=3 / weightb=1 / open_gop=0 / weightp=2 / keyint=240 / keyint_min=24 / scenecut=40 / intra_refresh=0 / rc_lookahead=50 / rc=2pass / mbtree=1 / bitrate=9645 / ratetol=1.0 / qcomp=0.60 / qpmin=0 / qpmax=69 / qpstep=4 / cplxblur=20.0 / qblur=0.5 / ip_ratio=1.40 / aq=1:0.75
Default : Yes
Forced : No

Audio
ID : 2
Format : DTS
Format/Info : Digital Theater Systems
Mode : 16
Format settings, Endianness : Big
Codec ID : A_DTS
Duration : 1 h 41 min
Bit rate mode : Constant
Bit rate : 1 509 kb/s
Channel(s) : 6 channels
Channel positions : Front: L C R, Side: L R, LFE
Sampling rate : 48.0 kHz
Frame rate : 93.750 FPS (512 spf)
Bit depth : 24 bits
Compression mode : Lossy
Stream size : 1.07 GiB (14%)
Language : English
Default : Yes
Forced : No

Menu
00:00:00.000 : en:00:00:00.000
00:04:47.287 : en:00:04:47.287
00:07:42.712 : en:00:07:42.712
00:11:11.004 : en:00:11:11.004
00:14:49.555 : en:00:14:49.555
00:20:40.948 : en:00:20:40.948
00:24:15.871 : en:00:24:15.871
00:28:24.286 : en:00:28:24.286
00:32:43.003 : en:00:32:43.003
00:38:19.964 : en:00:38:19.964
00:43:20.890 : en:00:43:20.890
00:46:01.676 : en:00:46:01.676
00:49:11.198 : en:00:49:11.198
00:55:01.006 : en:00:55:01.006
01:00:04.434 : en:01:00:04.434
01:03:13.331 : en:01:03:13.331
01:08:00.451 : en:01:08:00.451
01:12:54.078 : en:01:12:54.078
01:15:22.601 : en:01:15:22.601
01:19:43.404 : en:01:19:43.404
01:24:24.977 : en:01:24:24.977
01:28:17.626 : en:01:28:17.626
01:32:20.076 : en:01:32:20.076
01:36:47.427 : en:01:36:47.427


BRRip Screenshots

Beneath the 12-Mile Reef (1953)

Beneath the 12-Mile Reef (1953)

Beneath the 12-Mile Reef (1953)


BDRip 720p Screenshots

Beneath the 12-Mile Reef (1953)

Beneath the 12-Mile Reef (1953)

Beneath the 12-Mile Reef (1953)


BDRip 1080p Screenshots

Beneath the 12-Mile Reef (1953)

Beneath the 12-Mile Reef (1953)

Beneath the 12-Mile Reef (1953)


Come Visit My Blog (•‿•)