Bedknobs and Broomsticks (1971)

Bedknobs and Broomsticks (1971)

Bedknobs and Broomsticks (1971)
BDRip 1080p | MKV | 1792x1080 | AVC@8186 kb/s | English DTS@1509 kb/s
Subs: English | 6 channels | 1 h 57 min | 7.94 GB
Genre: Animation, Adventure, Comedy

An apprentice witch, three kids and a cynical conman search for the missing component to a magic spell useful to the defense of Britain.

IMDB - Won 1 Oscar. Another 1 win & 5 nominations.


General
Bedknobs.and.Broomsticks.1971.1080p.BluRay.X264-Japhson\Bedknobs.and.Broomsticks.1971.1080p.BluRay.X264-Japhson.mkv
Format : Matroska
Format version : Version 2
File size : 7.94 GiB
Duration : 1 h 57 min
Overall bit rate : 9 687 kb/s
Encoded date : UTC 2014-08-02 06:31:50
Writing application : mkvmerge v3.3.0 ('Language') built on Mar 24 2010 14:59:24
Writing library : libebml v0.8.0 + libmatroska v0.9.0

Video
ID : 1
Format : AVC
Format/Info : Advanced Video Codec
Format profile : High@L4.1
Format settings, CABAC : Yes
Format settings, ReFrames : 4 frames
Codec ID : V_MPEG4/ISO/AVC
Duration : 1 h 57 min
Bit rate : 8 186 kb/s
Width : 1 792 pixels
Height : 1 080 pixels
Display aspect ratio : 5:3
Frame rate mode : Constant
Frame rate : 23.976 (24000/1001) FPS
Color space : YUV
Chroma subsampling : 4:2:0
Bit depth : 8 bits
Scan type : Progressive
Bits/(Pixel*Frame) : 0.176
Stream size : 6.54 GiB (82%)
Writing library : x264 core 142 r2409 d6b4e63
Encoding settings : cabac=1 / ref=4 / deblock=1:-1:-1 / analyse=0x3:0x113 / me=umh / subme=7 / psy=1 / psy_rd=1.00:0.00 / mixed_ref=1 / me_range=16 / chroma_me=1 / trellis=1 / 8x8dct=1 / cqm=0 / deadzone=21,11 / fast_pskip=1 / chroma_qp_offset=-2 / threads=12 / lookahead_threads=2 / sliced_threads=0 / nr=0 / decimate=1 / interlaced=0 / bluray_compat=0 / constrained_intra=0 / bframes=3 / b_pyramid=2 / b_adapt=2 / b_bias=0 / direct=3 / weightb=1 / open_gop=0 / weightp=2 / keyint=250 / keyint_min=23 / scenecut=40 / intra_refresh=0 / rc_lookahead=40 / rc=2pass / mbtree=1 / bitrate=8186 / ratetol=1.0 / qcomp=0.60 / qpmin=0 / qpmax=69 / qpstep=4 / cplxblur=20.0 / qblur=0.5 / vbv_maxrate=50000 / vbv_bufsize=50000 / nal_hrd=none / filler=0 / ip_ratio=1.40 / aq=1:1.00
Language : English
Default : Yes
Forced : No

Audio
ID : 3
Format : DTS
Format/Info : Digital Theater Systems
Mode : 16
Format settings, Endianness : Big
Codec ID : A_DTS
Duration : 1 h 57 min
Bit rate mode : Constant
Bit rate : 1 509 kb/s
Channel(s) : 6 channels
Channel positions : Front: L C R, Side: L R, LFE
Sampling rate : 48.0 kHz
Frame rate : 93.750 FPS (512 spf)
Bit depth : 24 bits
Compression mode : Lossy
Stream size : 1.24 GiB (16%)
Language : English
Default : Yes
Forced : No

Text
ID : 2
Format : UTF-8
Codec ID : S_TEXT/UTF8
Codec ID/Info : UTF-8 Plain Text
Language : English
Default : Yes
Forced : No


BDRip 1080p Screenshots

Bedknobs and Broomsticks (1971)

Bedknobs and Broomsticks (1971)

Bedknobs and Broomsticks (1971)

Bedknobs and Broomsticks (1971)

Bedknobs and Broomsticks (1971)


Come Visit My Blog (•‿•)