PBS - Battle Line: Collection Two 1943 - 1945 (1964)

PBS - Battle Line: Collection Two 1943 - 1945 (1964)

PBS - Battle Line: Collection Two 1943 - 1945 (1964)
DVDRip | 688 x 520 | .AVI/XviD @ 1604 Kbps | 5x~100mn | 7.26 GB
Audio: English AC-3 384 Kbps, 6 channels | Subs: None
Genre: Documentary, War

There are two sides in every war and millions of different stories to share from each battle fought. A complete recorded history of WWII from Stalingrad to the bombing of Japan. This collection brings to you details of the war from both historical and human viewpoints. Hear detailed interviews from the allied forces, Nazi and Japanese perspectives, and witness astounding real-life footage. Series was collected from archives of many participating nations. Each episode of Battle Line tells the story of one battle by combining the personal remembrances of two soldiers, one from each side of the conflict. These authentically produced television shows, narrated by award winning reporter Jim Bishop, tell the saga of bloody World War II conflicts through the eyes of the combatants.
PART ONE: STALINGRAD - SICILY - PLOESTI - MONTE CASSINO
PART TWO : ARNHEIM - BATTLE FOR THE BULGE - ANZIO - OMAHA BEACH
PART THREE : BREAKOUT FROM NORMANDY - INVASION OF SOUTH FRANCE - BURMA - PELELIU ISLAND
PART FOUR : BATTLE OF GOTHIC LINE - BOMBING OF GERMANY - BRIDGEHEAD ON THE RHINE - FALL OF BERLIN
PART FIVE : LIBERATION OF THE PHILIPPINES - IWO JIMA - OKINAWA - BOMBING OF JAPAN: JAPAN SURRENDERS

Related Documentaries:
PBS - Battle Line: Collection One 1939 - 1942 (1963)
Discovery Channel - World War II In HD Colour (2009)
Smithsonian Channel - World War II: Final Days (2005)
Survivors of Stalingrad (2001)
History Channel - Heroes of War: Poland (2014)
National Geographic - Inside World War II (2012)
National Geographic - Generals at War: The Battle of Kursk (2009)

General
Complete name : PBS.Battle.Line.Collection.Two.1943.1945.1of5.avi
Format : AVI
Format/Info : Audio Video Interleave
File size : 1.45 GiB
Duration : 1 h 44 min
Overall bit rate : 1 999 kb/s
Movie name : PBS.Battle.Line.Collection.Two.1943.1945.1of5.MVGroup.org.avi
Writing application : VirtualDubMod 1.5.10.2 (build 2542/release)
Writing library : VirtualDubMod build 2542/release

Video
ID : 0
Format : MPEG-4 Visual
Format profile : Advanced Simple@L5
Format settings, BVOP : 2
Format settings, QPel : Yes
Format settings, GMC : No warppoints
Format settings, Matrix : Custom
Codec ID : XVID
Codec ID/Hint : XviD
Duration : 1 h 44 min
Bit rate : 1 604 kb/s
Width : 688 pixels
Height : 520 pixels
Display aspect ratio : 4:3
Frame rate : 29.970 (30000/1001) FPS
Color space : YUV
Chroma subsampling : 4:2:0
Bit depth : 8 bits
Scan type : Progressive
Compression mode : Lossy
Bits/(Pixel*Frame) : 0.150
Stream size : 1.17 GiB (80%)
Writing library : XviD 1.2.1 (UTC 2008-12-04)

Audio
ID : 1
Format : AC-3
Format/Info : Audio Coding 3
Format settings, Endianness : Big
Codec ID : 2000
Duration : 1 h 44 min
Bit rate mode : Constant
Bit rate : 384 kb/s
Channel(s) : 6 channels
Channel positions : Front: L C R, Side: L R, LFE
Sampling rate : 48.0 kHz
Frame rate : 31.250 FPS (1536 spf)
Bit depth : 16 bits
Compression mode : Lossy
Stream size : 286 MiB (19%)
Alignment : Split accross interleaves
Interleave, duration : 33 ms (1.00 video frame)
Interleave, preload duration : 500 ms
Service kind : Complete Main
Screenshots

PBS - Battle Line: Collection Two 1943 - 1945 (1964)

PBS - Battle Line: Collection Two 1943 - 1945 (1964)

PBS - Battle Line: Collection Two 1943 - 1945 (1964)

PBS - Battle Line: Collection Two 1943 - 1945 (1964)

Welcome to my blog - daily update!

PBS - Battle Line: Collection Two 1943 - 1945 (1964)