Band of Angels (1957)

Band of Angels (1957)

Band of Angels (1957)
WEBRip 1080p | MKV | 1920x1080 | AVC@14.5 Mb/s | English AC3@192 kb/s
Subs: English | 1 channel | 2 h 7 min | 13.0 GB
Genre: Drama, History, Romance

Mantha Starr grows up as a privileged southern Belle in the ante-bellum South but after her father dies broke, her world is destroyed when she discovers her mother was black.



General
Complete name : Band.of.Angels.1957.1080p.WEBRip.DD1.0.x264-SbR\Band.of.Angels.1957.1080p.WEBRip.DD1.0.x264-SbR.mkv
Format : Matroska
Format version : Version 2
File size : 13.0 GiB
Duration : 2 h 7 min
Overall bit rate mode : Variable
Overall bit rate : 14.7 Mb/s
Encoded date : UTC 2017-04-15 13:01:54
Writing application : mkvmerge v10.0.0 ('To Drown In You') 64bit
Writing library : libebml v1.3.4 + libmatroska v1.4.5
Cover : Yes
Attachments : cover.jpg

Video
ID : 1
Format : AVC
Format/Info : Advanced Video Codec
Format profile : High@L4
Format settings, CABAC : Yes
Format settings, ReFrames : 4 frames
Codec ID : V_MPEG4/ISO/AVC
Duration : 2 h 7 min
Bit rate mode : Variable
Bit rate : 14.5 Mb/s
Maximum bit rate : 15.0 Mb/s
Width : 1 920 pixels
Height : 1 080 pixels
Display aspect ratio : 16:9
Frame rate mode : Constant
Frame rate : 23.976 (24000/1001) FPS
Color space : YUV
Chroma subsampling : 4:2:0
Bit depth : 8 bits
Scan type : Progressive
Bits/(Pixel*Frame) : 0.291
Stream size : 12.9 GiB (99%)
Writing library : x264 core 148 r2623 d5b2374
Encoding settings : cabac=1 / ref=4 / deblock=1:-1:-1 / analyse=0x3:0x133 / me=umh / subme=9 / psy=1 / psy_rd=1.00:0.15 / mixed_ref=1 / me_range=24 / chroma_me=1 / trellis=2 / 8x8dct=1 / cqm=0 / deadzone=21,11 / fast_pskip=1 / chroma_qp_offset=-3 / threads=34 / lookahead_threads=5 / sliced_threads=0 / nr=150 / decimate=1 / interlaced=0 / bluray_compat=0 / constrained_intra=0 / bframes=8 / b_pyramid=2 / b_adapt=2 / b_bias=0 / direct=3 / weightb=1 / open_gop=0 / weightp=2 / keyint=120 / keyint_min=61 / scenecut=0 / intra_refresh=0 / rc_lookahead=120 / rc=crf / mbtree=1 / crf=18.0 / qcomp=0.60 / qpmin=0 / qpmax=69 / qpstep=4 / vbv_maxrate=15000 / vbv_bufsize=31250 / crf_max=0.0 / nal_hrd=vbr / filler=0 / ip_ratio=1.40 / aq=3:1.00
Language : English
Default : Yes
Forced : No
Color range : Limited
Color primaries : BT.709
Transfer characteristics : BT.709
Matrix coefficients : BT.709

Audio
ID : 2
Format : AC-3
Format/Info : Audio Coding 3
Mode extension : CM (complete main)
Format settings, Endianness : Big
Codec ID : A_AC3
Duration : 2 h 7 min
Bit rate mode : Constant
Bit rate : 192 kb/s
Channel(s) : 1 channel
Channel positions : Front: C
Sampling rate : 48.0 kHz
Frame rate : 31.250 FPS (1536 spf)
Bit depth : 16 bits
Compression mode : Lossy
Stream size : 175 MiB (1%)
Language : English
Default : Yes
Forced : No

Text #1
ID : 3
Format : UTF-8
Codec ID : S_TEXT/UTF8
Codec ID/Info : UTF-8 Plain Text
Duration : 2 h 4 min
Bit rate : 64 b/s
Count of elements : 1358
Stream size : 58.3 KiB (0%)
Language : English
Default : No
Forced : No

Text #2
ID : 4
Format : UTF-8
Codec ID : S_TEXT/UTF8
Codec ID/Info : UTF-8 Plain Text
Duration : 2 h 6 min
Bit rate : 63 b/s
Count of elements : 2167
Stream size : 59.1 KiB (0%)
Title : SDH
Language : English
Default : No
Forced : No

Menu
00:00:00.000 : en:01. Credits
00:01:30.209 : en:02. What Are Little Girls Made Of?
00:06:20.709 : en:03. Seminary for Young Ladies
00:10:59.543 : en:04. Chattel of Starwood
00:17:08.876 : en:05. End of Her Rope
00:25:14.409 : en:06. Sold at Auction
00:29:10.709 : en:07. Worse Than a Cell
00:32:36.576 : en:08. Invitation to Dine
00:36:12.876 : en:09. Rau-Ru's Report
00:39:57.876 : en:10. Current and Future Kings
00:43:05.376 : en:11. At Mamselle's Service
00:47:23.743 : en:12. Capt. Canavan Blows In
00:53:12.743 : en:13. Assumed Identity
00:56:35.710 : en:14. Plantation Arrival
01:02:33.544 : en:15. Charles' Challenge
01:07:23.044 : en:16. Coming to Blows
01:12:52.878 : en:17. Facing Down a Coward
01:19:43.378 : en:18. Burning Out a Life
01:24:05.878 : en:19. Capt. Strikedown
01:29:49.712 : en:20. Tasting Freedom
01:33:03.912 : en:21. Master and Fugitive
01:38:31.545 : en:22. Ethan Sears
01:43:48.878 : en:23. Seth's Blackmail
01:48:44.044 : en:24. In the Master's Chair
01:54:18.878 : en:25. Rescue Tale
02:00:48.211 : en:26. White Man's Bargain
02:04:55.711 : en:27. All of Us Free


WEBRip 1080p Screenshots

Band of Angels (1957)

Band of Angels (1957)

Band of Angels (1957)


Come Visit My Blog (•‿•)