BBC - October: Ten Days that Shook the World (1928)

BBC - October: Ten Days that Shook the World (1928)

BBC - October: Ten Days that Shook the World (1928)
HDTV | 960x720 | .MKV/AVC @ 2463 Kbps | 1 h 40 min | 1.81 GiB
Audio: English AAC 126 kbps, 2 channels | Subs: English
Genre: Documentary | Drama | History

An epic masterpiece of silent cinema, sanctioned by the Bolsheviks to celebrate the tenth anniversary of the Russian Revolution of October 1917. It serves as a record of the ten dramatic days in which the Bolsheviks brought down the government and stormed the tsar's Winter Palace, and employs a cast of thousands in its recreation. This is a re-edited version with a soundtrack by Dimitri Shostakovich.


General
Unique ID : 176405289997871346262853331290501717273 (0x84B66C4C0E51B4CD8DE91E8C61AC9D19)
Complete name : BBC.October.Ten.Days.that.Shook.the.World.720p.mkv
Format : Matroska
Format version : Version 4 / Version 2
File size : 1.81 GiB
Duration : 1 h 40 min
Overall bit rate : 2 591 kb/s

Video
ID : 1
Format : AVC
Format/Info : Advanced Video Codec
Format profile : High@L3.1
Format settings, CABAC : Yes
Format settings, ReFrames : 4 frames
Codec ID : V_MPEG4/ISO/AVC
Duration : 1 h 40 min
Bit rate : 2 463 kb/s
Width : 960 pixels
Height : 720 pixels
Display aspect ratio : 4:3
Frame rate mode : Constant
Frame rate : 25.000 FPS
Color space : YUV
Chroma subsampling : 4:2:0
Bit depth : 8 bits
Scan type : Progressive
Bits/(Pixel*Frame) : 0.143
Stream size : 1.72 GiB (95%)
Encoding settings : cabac=1 / ref=3 / deblock=1:0:0 / analyse=0x3:0x113 / me=umh / subme=9 / psy=1 / psy_rd=1.00:0.00 / mixed_ref=1 / me_range=24 / chroma_me=1 / trellis=1 / 8x8dct=1 / cqm=0 / deadzone=21,11 / fast_pskip=0 / chroma_qp_offset=-2 / threads=3 / lookahead_threads=1 / sliced_threads=0 / nr=0 / decimate=1 / interlaced=0 / bluray_compat=0 / constrained_intra=0 / bframes=6 / b_pyramid=2 / b_adapt=2 / b_bias=0 / direct=1 / weightb=1 / open_gop=0 / weightp=2 / keyint=250 / keyint_min=25 / scenecut=40 / intra_refresh=0 / rc_lookahead=40 / rc=crf / mbtree=1 / crf=21.0 / qcomp=0.60 / qpmin=0 / qpmax=69 / qpstep=4 / ip_ratio=1.40 / aq=1:1.00
Language : Russian
Default : Yes
Forced : No
Color range : Limited
Color primaries : BT.709
Transfer characteristics : BT.709
Matrix coefficients : BT.709

Audio
ID : 2
Format : AAC
Format/Info : Advanced Audio Codec
Format profile : LC
Codec ID : A_AAC
Duration : 1 h 40 min
Bit rate : 126 kb/s
Channel(s) : 2 channels
Channel positions : Front: L R
Sampling rate : 48.0 kHz
Frame rate : 46.875 FPS (1024 spf)
Compression mode : Lossy
Delay relative to video : 9 ms
Stream size : 90.6 MiB (5%)
Language : Russian
Default : Yes
Forced : No

Text
ID : 3
Format : UTF-8
Codec ID : S_TEXT/UTF8
Codec ID/Info : UTF-8 Plain Text
Duration : 1 h 35 min
Bit rate : 0 b/s
Count of elements : 25
Stream size : 329 Bytes (0%)
Language : English
Default : No
Forced : No


Screenshots:

BBC - October: Ten Days that Shook the World (1928)

BBC - October: Ten Days that Shook the World (1928)

BBC - October: Ten Days that Shook the World (1928)

BBC - October: Ten Days that Shook the World (1928)