Whistle and I'll Come to You (1968) [British Film Institute]

Whistle and I'll Come to You (1968) [British Film Institute]

BBC Christmas Ghost Stories. Whistle and I'll Come to You (1968) [British Film Institute]
DVD Video | 0hr 41mn | PAL 4:3 | 720x576 | 3.86 Gb
DVDRip | MKV | AVC 720x576, ~ 1.9 Mbps | 0hr 41mn| 625 Mb
English: AC3, 2 ch, 192 kbps | Subtitles: None
Genre: Documentary, Biography, Music
IMDB Rating: 7.6/10 (944 votes)


Director: Jonathan Miller
Writers: M.R. James (story "Oh, Whistle, and I'll Come to You, My Lad"), M.R. James
Stars: Michael Hordern, Ambrose Coghill, George Woodbridge

Film Distributor: BFI (British Film Institute)

A university professor, confident that everything which occurs in life has a rational explanation, finds his beliefs severely challenged when, during a vacation to a remote coastal village in Norfolk, he blows through an ancient whistle discovered on a beach, awakening horrors beyond human understanding.

Extras:
- BFI release of 'Whistle and I'll Come To You' (1968)
- Introduction by horror writer Ramsey Campbell.
- Reading of 'The Guide' by Ramsey Campbell.
- Reading of the original M R James story by Ramsey Campbell.




Title: BBC.ChristmasGhostStories.D5D9.BFI.WhistleAndIllComeToYou
Size: 3.86 Gb ( 4 046 290,00 KBytes ) - DVD-5
Enabled regions: 1, 2, 3, 4, 5, 6, 7, 8

VTS_01 :
Play Length: 00:00:23
Video: PAL 4:3 (720x576) VBR
Audio:
English (Dolby AC3, 2 ch)

VTS_02 :
Play Length: 00:41:56+00:15:40+00:26:41+00:00:01+00:00:00+00:41:36
Video: PAL 4:3 (720x576) VBR
Audio:
English (Dolby AC3, 2 ch)
Subtitles:
Not specified





General
Unique ID : 221929994624149558635370935614256476679 (0xA6F6298747462BB9BAB11B4FFD187207)
Complete name : F:\BBC.ChristmasGhostStories.D5D9.BFI.WhistleAndIllComeToYou.Dr\BBC.ChristmasGhostStories.D5D9.BFI.WhistleAndIllComeToYou.Dr.mkv
Format : Matroska
Format version : Version 4 / Version 2
File size : 625 MiB
Duration : 41 min 56 s
Overall bit rate : 2 084 kb/s
Movie name : Release RSU75
Encoded date : UTC 2020-01-02 05:40:32
Writing application : mkvmerge v6.6.0 ('The Edge Of The In Between') built on Dec 1 2013 17:55:00
Writing library : libebml v1.3.0 + libmatroska v1.4.1

Video
ID : 1
Format : AVC
Format/Info : Advanced Video Codec
Format profile : High@L4.1
Format settings : CABAC / 4 Ref Frames
Format settings, CABAC : Yes
Format settings, ReFrames : 4 frames
Codec ID : V_MPEG4/ISO/AVC
Duration : 41 min 56 s
Bit rate : 1 900 kb/s
Width : 720 pixels
Height : 576 pixels
Display aspect ratio : 4:3
Frame rate mode : Constant
Frame rate : 25.000 FPS
Standard : PAL
Color space : YUV
Chroma subsampling : 4:2:0
Bit depth : 8 bits
Scan type : Progressive
Bits/(Pixel*Frame) : 0.183
Stream size : 555 MiB (89%)
Writing library : x264 core 148 r2643 5c65704
Encoding settings : cabac=1 / ref=4 / deblock=1:0:0 / analyse=0x3:0x113 / me=umh / subme=8 / psy=1 / psy_rd=1.00:0.00 / mixed_ref=1 / me_range=24 / chroma_me=1 / trellis=1 / 8x8dct=1 / cqm=0 / deadzone=21,11 / fast_pskip=1 / chroma_qp_offset=-2 / threads=3 / lookahead_threads=1 / sliced_threads=0 / nr=0 / decimate=1 / interlaced=0 / bluray_compat=0 / constrained_intra=0 / bframes=3 / b_pyramid=0 / b_adapt=2 / b_bias=0 / direct=3 / weightb=1 / open_gop=0 / weightp=2 / keyint=250 / keyint_min=25 / scenecut=40 / intra_refresh=0 / rc_lookahead=40 / rc=abr / mbtree=1 / bitrate=1900 / ratetol=1.0 / qcomp=0.60 / qpmin=10 / qpmax=51 / qpstep=4 / ip_ratio=1.41 / aq=1:1.00
Language : English
Default : Yes
Forced : No

Audio
ID : 2
Format : AC-3
Format/Info : Audio Coding 3
Commercial name : Dolby Digital
Codec ID : A_AC3
Duration : 41 min 56 s
Bit rate mode : Constant
Bit rate : 192 kb/s
Channel(s) : 2 channels
Channel layout : L R
Sampling rate : 48.0 kHz
Frame rate : 31.250 FPS (1536 SPF)
Bit depth : 16 bits
Compression mode : Lossy
Stream size : 57.6 MiB (9%)
Title : Stereo
Language : English
Service kind : Complete Main
Default : Yes
Forced : No




Screenshots DVD (click to enlarge to original size):

Whistle and I'll Come to You (1968) [British Film Institute]

Whistle and I'll Come to You (1968) [British Film Institute]

Whistle and I'll Come to You (1968) [British Film Institute]

Whistle and I'll Come to You (1968) [British Film Institute]

Whistle and I'll Come to You (1968) [British Film Institute]



Thanks to original uploader


Screenshots DVDRip (click to enlarge to original size):

Whistle and I'll Come to You (1968) [British Film Institute]






If you like this release please visit my blog
In it you will find ALL the latest BFI releases (DVD, DVDRip, Blu-Ray, BDRip)