Battlestar Galactica / Звездный крейсер Галактика (1978) [ReUp]

Battlestar Galactica / Звездный крейсер Галактика (1978) [ReUp]

Battlestar Galactica / Звездный крейсер Галактика (1978)
BDRip | MKV | AVC 1280x690, ~ 4.0 Mbps | 2hr 04mn | 6.14 GB
English: DTS, 6 ch, 1510 kbps; Japanese \ Italian \ German: DTS, 2 ch, 448 kbps
Subtitles: English; Subtitles(PGS): English, Japanese, Italian, German, Czech, Danish, Dutch, Finnish, Greek, Hungarian, Korean, Norwegian, Polish, Russian, Swedish, Thai, Turkish, Chinese
Genre: Action | Adventure | Sci-Fi
IMDB Rating: 6.7/10 (5.589 votes)


Director: Richard A. Colla, Alan J. Levi
Writers: Glen A. Larson
Stars: Richard Hatch, Dirk Benedict, Lorne Greene

The story of how the Twelve Colonies of Mankind are destroyed after 1,000 years of war with the evil Cylon Empire. Through deceit, the Cylons are able to destroy the Colonies' entire fleet, except for the Battlestar Galactica, captained by Commander Adama. Adama gathers up the few remaining humans left on all the twelve worlds and embarks on a journey to find the mythical planet Earth, the supposed thirteenth colony, lost millennia ago when humans first left the motherworld Kobol. With food and fuel running out, the fleet heads for a mineral planet, Carillon, hoping to get what they need. The Ovions, who populate the planet, are being controlled by the Cylons, who set a trap for the Galactica. Under a clever ruse, Adama convinces the Cylons that his pilots are on the surface at a banquet, while the real pilots are at full combat readiness. The fleet gets their food and fuel, and escapes, destroying Carillon and a Cylon Baseship hiding behind the planet.


General
Unique ID : 236484855535180645399060422733944181112 (0xB1E953935630FBCC9927B115A315D178)
Complete name : F:\B2tlstrGlctc.78.BR.7p2.mkv
Format : Matroska
Format version : Version 4 / Version 2
File size : 6.14 GiB
Duration : 2h 4mn
Overall bit rate : 7 070 Kbps
Movie name : Release RSU75
Encoded date : UTC 2015-12-23 03:02:28
Writing application : mkvmerge v6.6.0 ('The Edge Of The In Between') built on Dec 1 2013 17:55:00
Writing library : libebml v1.3.0 + libmatroska v1.4.1

Video
ID : 1
Format : AVC
Format/Info : Advanced Video Codec
Format profile : High@L4.1
Format settings, CABAC : Yes
Format settings, ReFrames : 5 frames
Codec ID : V_MPEG4/ISO/AVC
Duration : 2h 4mn
Bit rate : 4 000 Kbps
Width : 1 280 pixels
Height : 690 pixels
Display aspect ratio : 1.85:1
Frame rate mode : Constant
Frame rate : 23.976 fps
Color space : YUV
Chroma subsampling : 4:2:0
Bit depth : 8 bits
Scan type : Progressive
Bits/(Pixel*Frame) : 0.189
Stream size : 3.55 GiB (58%)
Writing library : x264 core 130 r2273 b3065e6
Encoding settings : cabac=1 / ref=5 / deblock=1:0:0 / analyse=0x3:0x113 / me=umh / subme=8 / psy=1 / psy_rd=1.00:0.00 / mixed_ref=1 / me_range=16 / chroma_me=1 / trellis=1 / 8x8dct=1 / cqm=0 / deadzone=21,11 / fast_pskip=1 / chroma_qp_offset=-2 / threads=12 / lookahead_threads=2 / sliced_threads=0 / nr=0 / decimate=1 / interlaced=0 / bluray_compat=0 / constrained_intra=0 / bframes=3 / b_pyramid=2 / b_adapt=2 / b_bias=0 / direct=3 / weightb=1 / open_gop=0 / weightp=2 / keyint=240 / keyint_min=24 / scenecut=40 / intra_refresh=0 / rc_lookahead=50 / rc=2pass / mbtree=1 / bitrate=4000 / ratetol=1.0 / qcomp=0.60 / qpmin=0 / qpmax=69 / qpstep=4 / cplxblur=20.0 / qblur=0.5 / vbv_maxrate=62500 / vbv_bufsize=78125 / nal_hrd=none / ip_ratio=1.40 / aq=1:1.00
Language : English
Default : Yes
Forced : No
Color range : Limited
Color primaries : BT.709
Transfer characteristics : BT.709
Matrix coefficients : BT.709

Audio #1
ID : 3
Format : DTS
Format/Info : Digital Theater Systems
Mode : 16
Format settings, Endianness : Big
Codec ID : A_DTS
Duration : 2h 4mn
Bit rate mode : Constant
Bit rate : 1 509 Kbps
Channel(s) : 6 channels
Channel positions : Front: L C R, Side: L R, LFE
Sampling rate : 48.0 KHz
Bit depth : 24 bits
Compression mode : Lossy
Stream size : 1.31 GiB (21%)
Language : English
Default : Yes
Forced : No

Audio #2
ID : 4
Format : DTS
Format/Info : Digital Theater Systems
Mode : 16
Format settings, Endianness : Big
Codec ID : A_DTS
Duration : 2h 4mn
Bit rate mode : Constant
Bit rate : 447 Kbps
Channel(s) : 2 channels
Channel positions : Front: L R
Sampling rate : 48.0 KHz
Bit depth : 24 bits
Compression mode : Lossy
Stream size : 398 MiB (6%)
Language : Japanese
Default : No
Forced : No

Audio #3
ID : 5
Format : DTS
Format/Info : Digital Theater Systems
Mode : 16
Format settings, Endianness : Big
Codec ID : A_DTS
Duration : 2h 4mn
Bit rate mode : Constant
Bit rate : 447 Kbps
Channel(s) : 2 channels
Channel positions : Front: L R
Sampling rate : 48.0 KHz
Bit depth : 24 bits
Compression mode : Lossy
Stream size : 398 MiB (6%)
Language : Italian
Default : No
Forced : No

Audio #4
ID : 6
Format : DTS
Format/Info : Digital Theater Systems
Mode : 16
Format settings, Endianness : Big
Codec ID : A_DTS
Duration : 2h 4mn
Bit rate mode : Constant
Bit rate : 447 Kbps
Channel(s) : 2 channels
Channel positions : Front: L R
Sampling rate : 48.0 KHz
Bit depth : 24 bits
Compression mode : Lossy
Stream size : 398 MiB (6%)
Language : German
Default : No
Forced : No

Text #1
ID : 2
Format : VobSub
Muxing mode : zlib
Codec ID : S_VOBSUB
Codec ID/Info : Picture based subtitle format used on DVDs
Language : English
Default : No
Forced : No

Text #2
ID : 7
Format : PGS
Muxing mode : zlib
Codec ID : S_HDMV/PGS
Codec ID/Info : Picture based subtitle format used on BDs/HD-DVDs
Title : PGS
Language : Japanese
Default : No
Forced : No

Text #3
ID : 8
Format : PGS
Muxing mode : zlib
Codec ID : S_HDMV/PGS
Codec ID/Info : Picture based subtitle format used on BDs/HD-DVDs
Title : PGS
Language : English
Default : No
Forced : No

Text #4
ID : 9
Format : PGS
Muxing mode : zlib
Codec ID : S_HDMV/PGS
Codec ID/Info : Picture based subtitle format used on BDs/HD-DVDs
Title : PGS
Language : Italian
Default : No
Forced : No

Text #5
ID : 10
Format : PGS
Muxing mode : zlib
Codec ID : S_HDMV/PGS
Codec ID/Info : Picture based subtitle format used on BDs/HD-DVDs
Title : PGS
Language : German
Default : No
Forced : No

Text #6
ID : 11
Format : PGS
Muxing mode : zlib
Codec ID : S_HDMV/PGS
Codec ID/Info : Picture based subtitle format used on BDs/HD-DVDs
Title : PGS
Language : Czech
Default : No
Forced : No

Text #7
ID : 12
Format : PGS
Muxing mode : zlib
Codec ID : S_HDMV/PGS
Codec ID/Info : Picture based subtitle format used on BDs/HD-DVDs
Title : PGS
Language : Danish
Default : No
Forced : No

Text #8
ID : 13
Format : PGS
Muxing mode : zlib
Codec ID : S_HDMV/PGS
Codec ID/Info : Picture based subtitle format used on BDs/HD-DVDs
Title : PGS
Language : Dutch
Default : No
Forced : No

Text #9
ID : 14
Format : PGS
Muxing mode : zlib
Codec ID : S_HDMV/PGS
Codec ID/Info : Picture based subtitle format used on BDs/HD-DVDs
Title : PGS
Language : Finnish
Default : No
Forced : No

Text #10
ID : 15
Format : PGS
Muxing mode : zlib
Codec ID : S_HDMV/PGS
Codec ID/Info : Picture based subtitle format used on BDs/HD-DVDs
Title : PGS
Language : Greek
Default : No
Forced : No

Text #11
ID : 16
Format : PGS
Muxing mode : zlib
Codec ID : S_HDMV/PGS
Codec ID/Info : Picture based subtitle format used on BDs/HD-DVDs
Title : PGS
Language : Hungarian
Default : No
Forced : No

Text #12
ID : 17
Format : PGS
Muxing mode : zlib
Codec ID : S_HDMV/PGS
Codec ID/Info : Picture based subtitle format used on BDs/HD-DVDs
Title : PGS
Language : Korean
Default : No
Forced : No

Text #13
ID : 18
Format : PGS
Muxing mode : zlib
Codec ID : S_HDMV/PGS
Codec ID/Info : Picture based subtitle format used on BDs/HD-DVDs
Title : PGS
Language : Norwegian
Default : No
Forced : No

Text #14
ID : 19
Format : PGS
Muxing mode : zlib
Codec ID : S_HDMV/PGS
Codec ID/Info : Picture based subtitle format used on BDs/HD-DVDs
Title : PGS
Language : Polish
Default : No
Forced : No

Text #15
ID : 20
Format : PGS
Muxing mode : zlib
Codec ID : S_HDMV/PGS
Codec ID/Info : Picture based subtitle format used on BDs/HD-DVDs
Title : PGS
Language : Russian
Default : No
Forced : No

Text #16
ID : 21
Format : PGS
Muxing mode : zlib
Codec ID : S_HDMV/PGS
Codec ID/Info : Picture based subtitle format used on BDs/HD-DVDs
Title : PGS
Language : Swedish
Default : No
Forced : No

Text #17
ID : 22
Format : PGS
Muxing mode : zlib
Codec ID : S_HDMV/PGS
Codec ID/Info : Picture based subtitle format used on BDs/HD-DVDs
Title : PGS
Language : Thai
Default : No
Forced : No

Text #18
ID : 23
Format : PGS
Muxing mode : zlib
Codec ID : S_HDMV/PGS
Codec ID/Info : Picture based subtitle format used on BDs/HD-DVDs
Title : PGS
Language : Turkish
Default : No
Forced : No

Text #19
ID : 24
Format : PGS
Muxing mode : zlib
Codec ID : S_HDMV/PGS
Codec ID/Info : Picture based subtitle format used on BDs/HD-DVDs
Title : PGS
Language : Chinese
Default : No
Forced : No

Text #20
ID : 25
Format : PGS
Muxing mode : zlib
Codec ID : S_HDMV/PGS
Codec ID/Info : Picture based subtitle format used on BDs/HD-DVDs
Title : PGS
Language : Japanese
Default : No
Forced : No

Text #21
ID : 26
Format : PGS
Muxing mode : zlib
Codec ID : S_HDMV/PGS
Codec ID/Info : Picture based subtitle format used on BDs/HD-DVDs
Title : PGS
Language : Italian
Default : No
Forced : No

Text #22
ID : 27
Format : PGS
Muxing mode : zlib
Codec ID : S_HDMV/PGS
Codec ID/Info : Picture based subtitle format used on BDs/HD-DVDs
Title : PGS
Language : German
Default : No
Forced : No



Screenshots (click to enlarge to original size):

Battlestar Galactica / Звездный крейсер Галактика (1978) [ReUp]

Battlestar Galactica / Звездный крейсер Галактика (1978) [ReUp]

Battlestar Galactica / Звездный крейсер Галактика (1978) [ReUp]

Battlestar Galactica / Звездный крейсер Галактика (1978) [ReUp]

Battlestar Galactica / Звездный крейсер Галактика (1978) [ReUp]




–––––––––––––––––––––––––––––––––––––––-
>>> Other "BDRip" <<< OR >>> "Sci-Fi" <<<
–––––––––––––––––––––––––––––––––––––––-
>>> Visit Blog RSU75 Here <<<
–––––––––––––––––––––––––––––––––––––––-