Atlantis, the Lost Continent (1961)

Atlantis, the Lost Continent (1961)

Atlantis, the Lost Continent (1961)
BDRip 720p | MKV | 1280x720 | AVC@3579 kb/s | English DTS@1509 kb/s | 2 channels | 1 h 30 min | 3.20 GB
Genre: Adventure, Sci-Fi

A Greek Fisherman brings an Atlantean Princess back to her homeland which is the mythical city of Atlantis. He is enslaved for his trouble. The King is being manipulated by an evil sorcerer who is bent on using a natural resource of Atlantis to take over the world. The Atlanteans, or rather the slaves of Atlantis, are forced to mine a crystalline material which absorbs the suns rays. These crystals can then be used for warmth. The misuse of science has created weapons out of the crystals that can fire a heat ray to destroy whatever it touches.



General
Unique ID : 193944459400890206335307470357757744214 (0x91E8581CE3AE2AEBA103493777B8D456)
Complete name : D:\A\Atlantis.the.Lost Continent.1961.1080p.mkv
Format : Matroska
Format version : Version 4 / Version 2
File size : 3.21 GiB
Duration : 1 h 30 min
Overall bit rate : 5 090 kb/s
Encoded date : UTC 2016-12-27 17:43:58
Writing application : mkvmerge v9.2.0 ('Photograph') 32bit
Writing library : libebml v1.3.3 + libmatroska v1.4.4

Video
ID : 2
Format : AVC
Format/Info : Advanced Video Codec
Format profile : High@L4.1
Format settings, CABAC : Yes
Format settings, ReFrames : 5 frames
Codec ID : V_MPEG4/ISO/AVC
Duration : 1 h 30 min
Bit rate : 3 579 kb/s
Width : 1 280 pixels
Height : 720 pixels
Display aspect ratio : 16:9
Frame rate mode : Constant
Frame rate : 23.976 (24000/1001) FPS
Color space : YUV
Chroma subsampling : 4:2:0
Bit depth : 8 bits
Scan type : Progressive
Bits/(Pixel*Frame) : 0.162
Stream size : 2.25 GiB (70%)
Writing library : x264 core 148 r2744 b97ae06
Encoding settings : cabac=1 / ref=5 / deblock=1:-1:-1 / analyse=0x3:0x113 / me=umh / subme=7 / psy=1 / psy_rd=1.00:0.00 / mixed_ref=1 / me_range=16 / chroma_me=1 / trellis=1 / 8x8dct=1 / cqm=0 / deadzone=21,11 / fast_pskip=0 / chroma_qp_offset=-2 / threads=12 / lookahead_threads=2 / sliced_threads=0 / nr=0 / decimate=1 / interlaced=0 / bluray_compat=0 / constrained_intra=0 / bframes=3 / b_pyramid=2 / b_adapt=1 / b_bias=0 / direct=3 / weightb=1 / open_gop=0 / weightp=2 / keyint=250 / keyint_min=23 / scenecut=40 / intra_refresh=0 / rc_lookahead=40 / rc=crf / mbtree=1 / crf=20.0 / qcomp=0.60 / qpmin=0 / qpmax=69 / qpstep=4 / ip_ratio=1.40 / aq=1:1.00
Default : Yes
Forced : No

Audio
ID : 1
Format : DTS
Format/Info : Digital Theater Systems
Mode : 16
Format settings, Endianness : Big
Codec ID : A_DTS
Duration : 1 h 30 min
Bit rate mode : Constant
Bit rate : 1 509 kb/s
Channel(s) : 2 channels
Channel positions : Front: L R
Sampling rate : 48.0 kHz
Frame rate : 93.750 FPS (512 spf)
Bit depth : 24 bits
Compression mode : Lossy
Stream size : 973 MiB (30%)
Language : English
Default : Yes
Forced : No

Menu
00:00:00.000 : en:00:00:00.000
00:08:19.290 : en:00:08:19.290
00:12:56.693 : en:00:12:56.693
00:20:15.714 : en:00:20:15.714
00:27:36.738 : en:00:27:36.738
00:35:32.672 : en:00:35:32.672
00:41:52.260 : en:00:41:52.260
00:46:56.897 : en:00:46:56.897
00:53:12.731 : en:00:53:12.731
01:02:43.927 : en:01:02:43.927
01:09:49.811 : en:01:09:49.811
01:17:44.034 : en:01:17:44.034


BDRip 720p Screenshots

Atlantis, the Lost Continent (1961)

Atlantis, the Lost Continent (1961)

Atlantis, the Lost Continent (1961)

Atlantis, the Lost Continent (1961)

Atlantis, the Lost Continent (1961)


Come Visit My Blog (•‿•)