Anna Karenina (1948)

Anna Karenina (1948)

Anna Karenina (1948)
WEB-DL 1080p | MKV | 1 h 52 min | 4.44 GB | 1440x1080 | AVC@5494 kb/s
English AAC@137 kb/s, 2 ch
Subs: English
Genre: Drama, Romance

A married woman's affair with a dashing young officer has tragic results.



General
Anna.Karenina.1948.Cut.Version.1080p.WEB-DL.AAC2.0.H.264-SbR.mkv
Format : Matroska
Format version : Version 4 / Version 2
File size : 4.44 GB
Duration : 1 h 52 min
Overall bit rate : 5634 kb/s
Encoded date : UTC 2020-11-17 16:35:18
Writing application : mkvmerge v51.0.0 ('I Wish') 64-bit
Writing library : libebml v1.4.0 + libmatroska v1.6.2
Cover : Yes
Attachments : cover.jpg

Video
ID : 1
Format : AVC
Format/Info : Advanced Video Codec
Format profile : High@L4
Format settings, CABAC : Yes
Format settings, ReFrames : 5 frames
Codec ID : V_MPEG4/ISO/AVC
Duration : 1 h 52 min
Bit rate : 5494 kb/s
Width : 1440 pixels
Height : 1080 pixels
Display aspect ratio : 4:3
Frame rate mode : Constant
Frame rate : 23.976 (24000/1001) FPS
Color space : YUV
Chroma subsampling : 4:2:0
Bit depth : 8 bits
Scan type : Progressive
Bits/(Pixel*Frame) : 0.147
Stream size : 4.33 GB (98%)
Writing library : x264 core 157 r10 d4099dd
Encoding settings : cabac=1 / ref=5 / deblock=1:0:0 / analyse=0x3:0x113 / me=hex / subme=8 / psy=1 / psy_rd=1.00:0.00 / mixed_ref=1 / me_range=16 / chroma_me=1 / trellis=2 / 8x8dct=1 / cqm=0 / deadzone=21,11 / fast_pskip=1 / chroma_qp_offset=-2 / threads=34 / lookahead_threads=5 / sliced_threads=0 / nr=0 / decimate=1 / interlaced=0 / bluray_compat=0 / stitchable=1 / constrained_intra=0 / bframes=3 / b_pyramid=2 / b_adapt=2 / b_bias=0 / direct=3 / weightb=1 / open_gop=0 / weightp=2 / keyint=infinite / keyint_min=23 / scenecut=40 / intra_refresh=0 / rc_lookahead=50 / rc=crf / mbtree=1 / crf=20.0 / qcomp=0.60 / qpmin=5 / qpmax=69 / qpstep=4 / vbv_maxrate=5500 / vbv_bufsize=15000 / crf_max=0.0 / nal_hrd=none / filler=0 / ip_ratio=1.40 / aq=1:1.00
Language : English
Default : Yes
Forced : No
Color range : Limited
Color primaries : BT.709
Transfer characteristics : BT.709
Matrix coefficients : BT.709

Audio
ID : 2
Format : AAC
Format/Info : Advanced Audio Codec
Format profile : LC
Codec ID : A_AAC
Duration : 1 h 52 min
Bit rate : 137 kb/s
Channel(s) : 2 channels
Channel positions : Front: L R
Sampling rate : 48.0 kHz
Frame rate : 46.875 FPS (1024 spf)
Compression mode : Lossy
Stream size : 111 MB (2%)
Language : English
Default : Yes
Forced : No

Text #1
ID : 3
Format : UTF-8
Codec ID : S_TEXT/UTF8
Codec ID/Info : UTF-8 Plain Text
Duration : 1 h 46 min
Bit rate : 63 b/s
Count of elements : 1291
Stream size : 49.6 KiB (0%)
Language : English
Default : No
Forced : No

Text #2
ID : 4
Format : UTF-8
Codec ID : S_TEXT/UTF8
Codec ID/Info : UTF-8 Plain Text
Duration : 1 h 50 min
Bit rate : 65 b/s
Count of elements : 1398
Stream size : 52.8 KiB (0%)
Title : SDH
Language : English
Default : No
Forced : No

Menu
00:00:00.000 : en:Chapter 1
00:08:57.537 : en:Chapter 2
00:15:20.711 : en:Chapter 3
00:21:21.572 : en:Chapter 4
00:26:07.566 : en:Chapter 5
00:28:11.982 : en:Chapter 6
00:29:49.788 : en:Chapter 7
00:34:25.355 : en:Chapter 8
00:41:50.508 : en:Chapter 9
00:45:44.742 : en:Chapter 10
00:52:18.135 : en:Chapter 11
00:59:09.546 : en:Chapter 12
01:02:48.765 : en:Chapter 13
01:08:30.606 : en:Chapter 14
01:10:49.245 : en:Chapter 15
01:13:16.392 : en:Chapter 16
01:17:37.653 : en:Chapter 17
01:23:47.689 : en:Chapter 18
01:27:13.687 : en:Chapter 19
01:31:34.948 : en:Chapter 20
01:37:26.049 : en:Chapter 21
01:44:08.200 : en:Chapter 22
01:45:47.299 : en:Chapter 23
01:47:32.321 : en:Chapter 24



WEB-DL 1080p Screenshots

Anna Karenina (1948)

Anna Karenina (1948)

Anna Karenina (1948)

Anna Karenina (1948)


Come Visit My Blog (•‿•)