And Hope to Die / La course du lièvre à travers les champs (1972)

And Hope to Die / La course du lièvre à travers les champs (1972)

And Hope to Die / La course du lièvre à travers les champs (1972)
DVDRip | MKV | AVC 680x576, ~ 1.8 Mbps | 2hr 15mn | 1.88 GB
French (Français): AC3, 2 ch, 192 kbps
Subtitles: English, Russian (Русский)
Genre: Crime, Drama
IMDB Rating: 6.8/10 (487 votes)


Director: René Clément
Writers: David Goodis (novel), Sébastien Japrisot
Stars: Jean-Louis Trintignant, Robert Ryan, Lea Massari

The one that runs like the hare of French title is a Tony Cardot, young French pilot, who very unfortunately crashed his plane into a group of Gypsy children not far away from Montreal. Pursued by a group of vengeful Gypsies, his way accidentally crosses that of Charley, the boss of a gang planning a big caper. Taken prisoner by Charley and his men, Tony will become involved in the affair against his will…




General
Unique ID : 218511884506533044559578798186153560749 (0xA463DBB036C670F3A02EFACCC62ECAAD)
Complete name : F:\AndHopeToDie.1972.Dr\AndHopeToDie.1972.Dr .mkv
Format : Matroska
Format version : Version 4 / Version 2
File size : 1.88 GiB
Duration : 2 h 15 min
Overall bit rate : 1 993 kb/s
Movie name : Release RSU75
Encoded date : UTC 2019-09-10 07:14:33
Writing application : mkvmerge v6.6.0 ('The Edge Of The In Between') built on Dec 1 2013 17:55:00
Writing library : libebml v1.3.0 + libmatroska v1.4.1

Video
ID : 1
Format : AVC
Format/Info : Advanced Video Codec
Format profile : High@L4.1
Format settings : CABAC / 4 Ref Frames
Format settings, CABAC : Yes
Format settings, ReFrames : 4 frames
Codec ID : V_MPEG4/ISO/AVC
Duration : 2 h 15 min
Bit rate : 1 800 kb/s
Width : 680 pixels
Height : 576 pixels
Display aspect ratio : 5:3
Frame rate mode : Constant
Frame rate : 25.000 FPS
Color space : YUV
Chroma subsampling : 4:2:0
Bit depth : 8 bits
Scan type : Progressive
Bits/(Pixel*Frame) : 0.184
Stream size : 1.66 GiB (88%)
Writing library : x264 core 148 r2643 5c65704
Encoding settings : cabac=1 / ref=4 / deblock=1:0:0 / analyse=0x3:0x113 / me=umh / subme=8 / psy=1 / psy_rd=1.00:0.00 / mixed_ref=1 / me_range=24 / chroma_me=1 / trellis=1 / 8x8dct=1 / cqm=0 / deadzone=21,11 / fast_pskip=1 / chroma_qp_offset=-2 / threads=3 / lookahead_threads=1 / sliced_threads=0 / nr=0 / decimate=1 / interlaced=0 / bluray_compat=0 / constrained_intra=0 / bframes=3 / b_pyramid=0 / b_adapt=2 / b_bias=0 / direct=3 / weightb=1 / open_gop=0 / weightp=2 / keyint=250 / keyint_min=25 / scenecut=40 / intra_refresh=0 / rc_lookahead=40 / rc=abr / mbtree=1 / bitrate=1800 / ratetol=1.0 / qcomp=0.60 / qpmin=10 / qpmax=51 / qpstep=4 / ip_ratio=1.41 / aq=1:1.00
Language : English
Default : Yes
Forced : No

Audio
ID : 2
Format : AC-3
Format/Info : Audio Coding 3
Commercial name : Dolby Digital
Codec ID : A_AC3
Duration : 2 h 15 min
Bit rate mode : Constant
Bit rate : 192 kb/s
Channel(s) : 2 channels
Channel layout : L R
Sampling rate : 48.0 kHz
Frame rate : 31.250 FPS (1536 SPF)
Bit depth : 16 bits
Compression mode : Lossy
Stream size : 186 MiB (10%)
Language : French
Service kind : Complete Main
Default : Yes
Forced : No

Text #1
ID : 3
Format : VobSub
Muxing mode : zlib
Codec ID : S_VOBSUB
Codec ID/Info : Picture based subtitle format used on DVDs
Language : English
Default : Yes
Forced : No

Text #2
ID : 4
Format : VobSub
Muxing mode : zlib
Codec ID : S_VOBSUB
Codec ID/Info : Picture based subtitle format used on DVDs
Language : Russian
Default : No
Forced : No

Menu
00:00:00.000 : en:Chapter 01
00:11:24.840 : en:Chapter 02
00:19:34.440 : en:Chapter 03
00:25:28.960 : en:Chapter 04
00:31:54.360 : en:Chapter 05
00:39:19.920 : en:Chapter 06
00:52:29.920 : en:Chapter 07
00:58:55.520 : en:Chapter 08
01:13:50.320 : en:Chapter 09
01:24:01.040 : en:Chapter 10
01:31:26.240 : en:Chapter 11
01:36:35.600 : en:Chapter 12
01:43:37.600 : en:Chapter 13
01:49:52.480 : en:Chapter 14
01:55:21.880 : en:Chapter 15
01:59:16.360 : en:Chapter 16




Screenshots DVDRip (click to enlarge to original size):

And Hope to Die / La course du lièvre à travers les champs (1972)




–––––––––––––––––––––––––––––––––––––––-
>>> "Crime" <<<OR >>> "DVDRip" <<<OR >>> "French (Français)" <<<
–––––––––––––––––––––––––––––––––––––––-
>>> Visit Blog RSU75 Here <<<
–––––––––––––––––––––––––––––––––––––––-