Ambush at Tomahawk Gap (1953)

Ambush at Tomahawk Gap (1953)

Ambush at Tomahawk Gap (1953)
WEB-DL 720p | MKV | 1 h 13 min | 3.13 GB | 1280x720 | AVC@6000 kb/s | English AC3@224 kb/s, 2 ch
WEB-DL 1080p | MKV | 1 h 13 min | 5.03 GB | 1920x1080 | AVC@10000 kb/s | English AC3@224 kb/s, 2 ch
Subs: English
Genre: Action, Romance, Western

An innocent cowboy convicted with three robbers, fresh out of Yuma Territorial Prison, travels with them to get a share of their hidden loot.



General
Ambush.at.Tomahawk.Gap.1953.720p.AMZN.WEB-DL.DDP2.0.H.264-NTb.mkv
Format : Matroska
Format version : Version 4 / Version 2
File size : 3.13 GB
Duration : 1 h 13 min
Overall bit rate : 6120 kb/s
Writing application : mkvmerge v45.0.0 ('Heaven in Pennies') 64-bit
Writing library : libebml v1.3.10 + libmatroska v1.5.2

Video
ID : 1
Format : AVC
Format/Info : Advanced Video Codec
Format profile : High@L3.1
Format settings, CABAC : Yes
Format settings, ReFrames : 4 frames
Codec ID : V_MPEG4/ISO/AVC
Duration : 1 h 13 min
Bit rate mode : Constant
Bit rate : 6000 kb/s
Width : 1280 pixels
Height : 720 pixels
Display aspect ratio : 16:9
Frame rate mode : Constant
Frame rate : 23.976 (24000/1001) FPS
Color space : YUV
Chroma subsampling : 4:2:0
Bit depth : 8 bits
Scan type : Progressive
Bits/(Pixel*Frame) : 0.272
Stream size : 3.01 GB (96%)
Default : Yes
Forced : No
Color range : Limited
Color primaries : BT.709
Transfer characteristics : BT.709
Matrix coefficients : BT.709

Audio
ID : 2
Format : E-AC-3
Format/Info : Enhanced Audio Coding 3
Format settings, Endianness : Big
Codec ID : A_EAC3
Duration : 1 h 13 min
Bit rate mode : Constant
Bit rate : 224 kb/s
Channel(s) : 2 channels
Channel positions : Front: L R
Sampling rate : 48.0 kHz
Frame rate : 187.500 FPS (256 spf)
Compression mode : Lossy
Stream size : 117 MB (4%)
Language : English
Default : Yes
Forced : No

Text
ID : 3
Format : UTF-8
Codec ID : S_TEXT/UTF8
Codec ID/Info : UTF-8 Plain Text
Duration : 1 h 12 min
Bit rate : 48 b/s
Count of elements : 869
Stream size : 25.6 KiB (0%)
Title : SDH
Language : English
Default : No
Forced : No


General
Ambush.at.Tomahawk.Gap.1953.1080p.AMZN.WEB-DL.DDP2.0.H.264-NTb.mkv
Format : Matroska
Format version : Version 4 / Version 2
File size : 5.03 GB
Duration : 1 h 13 min
Overall bit rate : 9836 kb/s
Writing application : mkvmerge v45.0.0 ('Heaven in Pennies') 64-bit
Writing library : libebml v1.3.10 + libmatroska v1.5.2

Video
ID : 1
Format : AVC
Format/Info : Advanced Video Codec
Format profile : High@L4
Format settings, CABAC : Yes
Format settings, ReFrames : 4 frames
Codec ID : V_MPEG4/ISO/AVC
Duration : 1 h 13 min
Bit rate mode : Constant
Bit rate : 10000 kb/s
Width : 1920 pixels
Height : 1080 pixels
Display aspect ratio : 16:9
Frame rate mode : Constant
Frame rate : 23.976 (24000/1001) FPS
Color space : YUV
Chroma subsampling : 4:2:0
Bit depth : 8 bits
Scan type : Progressive
Bits/(Pixel*Frame) : 0.201
Stream size : 4.91 GB (98%)
Default : Yes
Forced : No
Color range : Limited
Color primaries : BT.709
Transfer characteristics : BT.709
Matrix coefficients : BT.709

Audio
ID : 2
Format : E-AC-3
Format/Info : Enhanced Audio Coding 3
Format settings, Endianness : Big
Codec ID : A_EAC3
Duration : 1 h 13 min
Bit rate mode : Constant
Bit rate : 224 kb/s
Channel(s) : 2 channels
Channel positions : Front: L R
Sampling rate : 48.0 kHz
Frame rate : 187.500 FPS (256 spf)
Compression mode : Lossy
Stream size : 117 MB (2%)
Language : English
Default : Yes
Forced : No

Text
ID : 3
Format : UTF-8
Codec ID : S_TEXT/UTF8
Codec ID/Info : UTF-8 Plain Text
Duration : 1 h 12 min
Bit rate : 48 b/s
Count of elements : 869
Stream size : 25.6 KiB (0%)
Title : SDH
Language : English
Default : No
Forced : No



WEB-DL 720p Screenshots

Ambush at Tomahawk Gap (1953)

Ambush at Tomahawk Gap (1953)

Ambush at Tomahawk Gap (1953)


WEB-DL 1080p Screenshots

Ambush at Tomahawk Gap (1953)

Ambush at Tomahawk Gap (1953)

Ambush at Tomahawk Gap (1953)


Come Visit My Blog (•‿•)