A Gathering of Eagles (1963)

A Gathering of Eagles (1963)

A Gathering of Eagles (1963)
WEB-DL 1080p | MKV | 1 h 55 min | 11.6 GB | 1920x1040 | AVC@14.1 Mb/s
English AC3@224 kb/s, 2 ch
Subs: English
Genre: Drama | Romance | War

During the Cold War, Air Force Colonel Jim Caldwell shapes up his Strategic Air Command B-52 wing to pass a nuclear war readiness test.

IMDB - Nominated for 1 Oscar.


General
A.Gathering.of.Eagles.1963.1080p.WEB-DL.DDP2.0.H.264-SbR.mkv
Format : Matroska
Format version : Version 4 / Version 2
File size : 11.6 GB
Duration : 1 h 55 min
Overall bit rate mode : Variable
Overall bit rate : 14.3 Mb/s
Encoded date : UTC 2018-01-08 14:52:48
Writing application : mkvmerge v19.0.0 ('Brave Captain') 64-bit
Writing library : libebml v1.3.5 + libmatroska v1.4.8

Video
ID : 1
Format : AVC
Format/Info : Advanced Video Codec
Format profile : High@L4
Format settings, CABAC : Yes
Format settings, ReFrames : 4 frames
Codec ID : V_MPEG4/ISO/AVC
Duration : 1 h 55 min
Bit rate mode : Variable
Bit rate : 14.1 Mb/s
Maximum bit rate : 15.0 Mb/s
Width : 1920 pixels
Height : 1040 pixels
Display aspect ratio : 1.85:1
Frame rate mode : Constant
Frame rate : 23.976 (24000/1001) FPS
Color space : YUV
Chroma subsampling : 4:2:0
Bit depth : 8 bits
Scan type : Progressive
Bits/(Pixel*Frame) : 0.295
Stream size : 11.4 GB (98%)
Default : Yes
Forced : No
Color range : Limited
Color primaries : BT.709
Transfer characteristics : BT.709
Matrix coefficients : BT.709

Audio
ID : 2
Format : E-AC-3
Format/Info : Enhanced Audio Coding 3
Format settings, Endianness : Big
Codec ID : A_EAC3
Duration : 1 h 55 min
Bit rate mode : Constant
Bit rate : 224 kb/s
Channel(s) : 2 channels
Channel positions : Front: L R
Sampling rate : 48.0 kHz
Frame rate : 187.500 FPS (256 spf)
Compression mode : Lossy
Stream size : 185 MB (2%)
Language : English
Default : Yes
Forced : No

Text #1
ID : 3
Format : UTF-8
Codec ID : S_TEXT/UTF8
Codec ID/Info : UTF-8 Plain Text
Duration : 1 h 53 min
Bit rate : 68 b/s
Count of elements : 1452
Stream size : 57.3 KiB (0%)
Language : English
Default : No
Forced : No

Text #2
ID : 4
Format : UTF-8
Codec ID : S_TEXT/UTF8
Codec ID/Info : UTF-8 Plain Text
Duration : 1 h 53 min
Bit rate : 70 b/s
Count of elements : 1516
Stream size : 59.1 KiB (0%)
Title : SDH
Language : English
Default : No
Forced : No



WEB-DL 1080p Screenshots

A Gathering of Eagles (1963)

A Gathering of Eagles (1963)

A Gathering of Eagles (1963)


Come Visit My Blog (•‿•)