Across the Great Divide (1976)

Across the Great Divide (1976)

Across the Great Divide (1976)
WEBRip | MKV | 1920x1080 | English | H264 @ 5917 kbps | E-AC-3 @ 224 kbps | 1 h 40 min | 4.32 GiB
Genre: Action, Drama, Family

Two orphans set out to claim their inheritance - a 400 acre plot of land in Salem Oregon. To Do so they must cross the rugged snow covered Rocky Mountains in the year 1876.

Across.the.Great.Divide.1976.1080p.AMZN.WEB-DL.DDP2.0.H.264-bf.mkv (4.3 GB)
Across.the.Great.Divide.1976.1080p.AMZN.WEB-DL.DDP2.0.H.264-bf.srt (76.6 KB)



General
Unique ID : 252577048481659472314652846978876343884 (0xBE0491F1A716D9D6B6CDB9676F44864C)
Complete name : ./Across.the.Great.Divide.1976.1080p.AMZN.WEB-DL.DDP2.0.H.264-bf.mkv
Format : Matroska
Format version : Version 2
File size : 4.32 GiB
Duration : 1 h 40 min
Overall bit rate : 6 143 kb/s
Movie name : Across.the.Great.Divide.1976.1080p.AMZN.WEB-DL.DDP2.0.H.264-IGD
Encoded date : UTC 2019-09-07 23:06:33
Writing application : DVDFab 10.0.9.0
Writing library : libebml v1.3.4 + libmatroska v1.4.5

Video
ID : 1
Format : AVC
Format/Info : Advanced Video Codec
Format profile : High@L4.1
Format settings : CABAC / 3 Ref Frames
Format settings, CABAC : Yes
Format settings, RefFrames : 3 frames
Codec ID : V_MPEG4/ISO/AVC
Duration : 1 h 40 min
Bit rate : 5 917 kb/s
Width : 1 920 pixels
Height : 1 080 pixels
Display aspect ratio : 16:9
Frame rate mode : Constant
Frame rate : 23.976 (24000/1001) FPS
Color space : YUV
Chroma subsampling : 4:2:0
Bit depth : 8 bits
Scan type : Progressive
Bits/(Pixel*Frame) : 0.119
Stream size : 4.16 GiB (96%)
Writing library : x264 core 148
Encoding settings : cabac=1 / ref=3 / deblock=1:-1:-1 / analyse=0x3:0 / me=hex / subme=5 / psy=1 / psy_rd=1.00:0.00 / mixed_ref=0 / me_range=16 / chroma_me=1 / trellis=1 / 8x8dct=1 / cqm=0 / deadzone=21,11 / fast_pskip=0 / chroma_qp_offset=0 / threads=4 / lookahead_threads=1 / sliced_threads=0 / nr=0 / decimate=1 / interlaced=0 / bluray_compat=0 / constrained_intra=0 / bframes=2 / b_pyramid=0 / b_adapt=1 / b_bias=0 / direct=1 / weightb=0 / open_gop=0 / weightp=0 / keyint=24 / keyint_min=2 / scenecut=40 / intra_refresh=0 / rc=2pass / mbtree=0 / bitrate=5917 / ratetol=1.0 / qcomp=0.60 / qpmin=0 / qpmax=69 / qpstep=4 / cplxblur=20.0 / qblur=0.5 / ip_ratio=1.40 / pb_ratio=1.30 / aq=1:1.00
Default : Yes
Forced : No
Color range : Limited
Color primaries : BT.709
Transfer characteristics : BT.709
Matrix coefficients : BT.709

Audio
ID : 2
Format : E-AC-3
Format/Info : Enhanced Audio Coding 3
Format settings, Endianness : Big
Codec ID : A_EAC3
Duration : 1 h 40 min
Bit rate mode : Constant
Bit rate : 224 kb/s
Channel(s) : 2 channels
Channel positions : Front: L R
Sampling rate : 48.0 kHz
Frame rate : 187.500 FPS (256 SPF)
Compression mode : Lossy
Stream size : 161 MiB (4%)
Language : English
Service kind : Complete Main
Default : Yes
Forced : No





Across the Great Divide (1976)


Across the Great Divide (1976)


Across the Great Divide (1976)


Across the Great Divide (1976)


Across the Great Divide (1976)