A Christmas Story (1983)

A Christmas Story (1983)

A Christmas Story (1983)
BDRip | MKV | 1920x1080 | English | H265 @ 3679 kbps | AC-3 @ 160 kbps | 1 h 33 min | 2.56 GiB
Subtitles: English
Genre: Comedy, Family

The comic mishaps and adventures of a young boy named Ralph, trying to convince his parents, teachers, and Santa that a Red Ryder B.B. gun really is the perfect Christmas gift for the 1940s.

c3cf153b54344ac2b8c83a70d09ce5fb.mkv (2.6 GB)



General
Unique ID : 172812171334138002680403059497268365648 (0x820269DE96F70AF859C8F2BAC6E74950)
Complete name : ./c3cf153b54344ac2b8c83a70d09ce5fb.mkv
Format : Matroska
Format version : Version 4 / Version 2
File size : 2.56 GiB
Duration : 1 h 33 min
Overall bit rate : 3 918 kb/s
Encoded date : UTC 2020-01-12 18:05:17
Writing application : mkvmerge v42.0.0 ('Overtime') 64-bit
Writing library : libebml v1.3.10 + libmatroska v1.5.2

Video
ID : 1
Format : HEVC
Format/Info : High Efficiency Video Coding
Format profile : Main 10@L4@Main
Codec ID : V_MPEGH/ISO/HEVC
Duration : 1 h 33 min
Bit rate : 3 680 kb/s
Width : 1 920 pixels
Height : 1 080 pixels
Display aspect ratio : 16:9
Frame rate mode : Constant
Frame rate : 23.976 (24000/1001) FPS
Color space : YUV
Chroma subsampling : 4:2:0
Bit depth : 10 bits
Bits/(Pixel*Frame) : 0.074
Stream size : 2.40 GiB (94%)
Writing library : x265 2.9:[Windows][GCC 8.2.0][64 bit] 10bit
Encoding settings : cpuid=1111039 / frame-threads=4 / numa-pools=16 / wpp / no-pmode / no-pme / no-psnr / no-ssim / log-level=2 / input-csp=1 / input-res=1920x1080 / interlace=0 / total-frames=0 / level-idc=0 / high-tier=1 / uhd-bd=0 / ref=3 / no-allow-non-conformance / no-repeat-headers / annexb / no-aud / no-hrd / info / hash=0 / no-temporal-layers / open-gop / min-keyint=24 / keyint=240 / gop-lookahead=0 / bframes=4 / b-adapt=2 / b-pyramid / bframe-bias=0 / rc-lookahead=20 / lookahead-slices=6 / scenecut=40 / radl=0 / no-intra-refresh / ctu=64 / min-cu-size=8 / no-rect / no-amp / max-tu-size=32 / tu-inter-depth=1 / tu-intra-depth=1 / limit-tu=0 / rdoq-level=0 / dynamic-rd=0.00 / no-ssim-rd / signhide / no-tskip / nr-intra=0 / nr-inter=0 / no-constrained-intra / strong-intra-smoothing / max-merge=2 / limit-refs=3 / no-limit-modes / me=1 / subme=2 / merange=57 / temporal-mvp / weightp / no-weightb / no-analyze-src-pics / deblock=0:0 / sao / no-sao-non-deblock / rd=3 / no-early-skip / rskip / no-fast-intra / no-tskip-fast / no-cu-lossless / no-b-intra / no-splitrd-skip / rdpenalty=0 / psy-rd=2.00 / psy-rdoq=0.00 / no-rd-refine / no-lossless / cbqpoffs=0 / crqpoffs=0 / rc=crf / crf=23.0 / qcomp=0.60 / qpstep=4 / stats-write=0 / stats-read=0 / ipratio=1.40 / pbratio=1.30 / aq-mode=1 / aq-strength=1.00 / cutree / zone-count=0 / no-strict-cbr / qg-size=32 / no-rc-grain / qpmax=69 / qpmin=0 / no-const-vbv / sar=255 / sar-width / : / sar-height=159:160 / overscan=0 / videoformat=5 / range=0 / colorprim=1 / transfer=1 / colormatrix=1 / chromaloc=0 / display-window=0 / max-cll=0,0 / min-luma=0 / max-luma=1023 / log2-max-poc-lsb=8 / vui-timing-info / vui-hrd-info / slices=1 / no-opt-qp-pps / no-opt-ref-list-length-pps / no-multi-pass-opt-rps / scenecut-bias=0.05 / no-opt-cu-delta-qp / no-aq-motion / no-hdr / no-hdr-opt / no-dhdr10-opt / no-idr-recovery-sei / analysis-reuse-level=5 / scale-factor=0 / refine-intra=0 / refine-inter=0 / refine-mv=0 / no-limit-sao / ctu-info=0 / no-lowpass-dct / refine-mv-type=0 / copy-pic=1 / max-ausize-factor=1.0 / no-dynamic-refine / no-single-sei
Default : Yes
Forced : No
Color range : Limited
Color primaries : BT.709
Transfer characteristics : BT.709
Matrix coefficients : BT.709

Audio
ID : 2
Format : AC-3
Format/Info : Audio Coding 3
Format settings, Endianness : Big
Codec ID : A_AC3
Duration : 1 h 33 min
Bit rate mode : Constant
Bit rate : 160 kb/s
Channel(s) : 1 channel
Channel positions : Front: C
Sampling rate : 48.0 kHz
Frame rate : 31.250 FPS (1536 SPF)
Bit depth : 16 bits
Compression mode : Lossy
Delay relative to video : -5 ms
Stream size : 107 MiB (4%)
Title : Mono
Language : English
Service kind : Complete Main
Default : Yes
Forced : No

Text
ID : 3
Format : PGS
Muxing mode : zlib
Codec ID : S_HDMV/PGS
Codec ID/Info : Picture based subtitle format used on BDs/HD-DVDs
Language : English
Default : No
Forced : No

Menu
00:00:00.000 : :Chapter 1
00:02:15.844 : :Chapter 2
00:04:49.956 : :Chapter 3
00:08:24.921 : :Chapter 4
00:10:51.901 : :Chapter 5
00:12:14.901 : :Chapter 6
00:15:01.901 : :Chapter 7
00:21:38.464 : :Chapter 8
00:24:04.902 : :Chapter 9
00:26:09.943 : :Chapter 10
00:28:27.998 : :Chapter 11
00:34:04.334 : :Chapter 12
00:36:52.711 : :Chapter 13
00:38:49.744 : :Chapter 14
00:40:38.519 : :Chapter 15
00:44:29.959 : :Chapter 16
00:46:21.988 : :Chapter 17
00:47:38.898 : :Chapter 18
00:51:15.864 : :Chapter 19
00:54:27.306 : :Chapter 20
00:56:30.846 : :Chapter 21
00:59:38.617 : :Chapter 22
01:03:39.149 : :Chapter 23
01:05:48.903 : :Chapter 24
01:11:46.093 : :Chapter 25
01:13:41.667 : :Chapter 26
01:16:27.374 : :Chapter 27
01:19:26.553 : :Chapter 28
01:22:06.046 : :Chapter 29
01:24:08.544 : :Chapter 30
01:27:18.692 : :Chapter 31
01:29:19.729 : :Chapter 32





A Christmas Story (1983)


A Christmas Story (1983)


A Christmas Story (1983)


A Christmas Story (1983)


A Christmas Story (1983)