A Christmas Carol (1938)

A Christmas Carol (1938)

A Christmas Carol (1938)
BluRay Remux | MKV | 1920x1080 | English | H264 @ 24929 kbps | DTS | 1 h 9 min | 12.6 GiB
Subtitles: Spanish, French, English
Genre: Drama, Fantasy, Family

On Christmas Eve, an old miser named Ebenezer Scrooge is visited by the spirit of his former partner, Jacob Marley.

db201d2a01aa4ebe87ff5d5a2f29d3fe.mkv (12.6 GB)



General
Complete name : ./db201d2a01aa4ebe87ff5d5a2f29d3fe.mkv
Format : Matroska
Format version : Version 4 / Version 2
File size : 12.6 GiB
Duration : 1 h 9 min
Overall bit rate mode : Variable
Overall bit rate : 26.1 Mb/s
Encoded date : UTC 2018-04-08 18:56:17
Writing application : mkvmerge v22.0.0 ('At The End Of The World') 64-bit
Writing library : libebml v1.3.5 + libmatroska v1.4.8

Video
ID : 1
Format : AVC
Format/Info : Advanced Video Codec
Format profile : High@L4.1
Format settings : CABAC / 2 Ref Frames
Format settings, CABAC : Yes
Format settings, RefFrames : 2 frames
Format settings, GOP : M=1, N=10
Codec ID : V_MPEG4/ISO/AVC
Duration : 1 h 9 min
Bit rate mode : Variable
Bit rate : 24.9 Mb/s
Width : 1 920 pixels
Height : 1 080 pixels
Display aspect ratio : 16:9
Frame rate mode : Constant
Frame rate : 23.976 (24000/1001) FPS
Color space : YUV
Chroma subsampling : 4:2:0
Bit depth : 8 bits
Scan type : Progressive
Bits/(Pixel*Frame) : 0.501
Stream size : 12.1 GiB (96%)
Title : MPEG-4 AVC Video / 24930 kbps / 1080p / 23,976 fps / 16:9 / High Profile 4.1
Language : English
Default : Yes
Forced : No

Audio
ID : 2
Format : DTS
Format/Info : Digital Theater Systems
Format profile : MA / Core
Mode : 16
Format settings, Endianness : Big
Codec ID : A_DTS
Duration : 1 h 9 min
Bit rate mode : Variable / Constant
Bit rate : 1 024 kb/s / 768 kb/s
Channel(s) : 1 channel
Channel positions : Front: C
Sampling rate : 48.0 kHz
Frame rate : 93.750 FPS (512 SPF)
Bit depth : 24 bits
Compression mode : Lossless / Lossy
Stream size : 514 MiB (4%)
Title : DTS-HD Master Audio / 1.0 / 48 kHz / 1039 kbps / 24-bit
Language : English
Default : Yes
Forced : No

Text #1
ID : 3
Format : PGS
Codec ID : S_HDMV/PGS
Codec ID/Info : Picture based subtitle format used on BDs/HD-DVDs
Duration : 1 h 7 min
Bit rate : 40.3 kb/s
Count of elements : 2042
Stream size : 19.4 MiB (0%)
Title : SDH
Language : English
Default : No
Forced : No

Text #2
ID : 4
Format : PGS
Codec ID : S_HDMV/PGS
Codec ID/Info : Picture based subtitle format used on BDs/HD-DVDs
Duration : 1 h 8 min
Bit rate : 34.2 kb/s
Count of elements : 1792
Stream size : 16.8 MiB (0%)
Language : French
Default : No
Forced : No

Text #3
ID : 5
Format : PGS
Codec ID : S_HDMV/PGS
Codec ID/Info : Picture based subtitle format used on BDs/HD-DVDs
Duration : 1 h 8 min
Bit rate : 32.4 kb/s
Count of elements : 1792
Stream size : 16.0 MiB (0%)
Title : Latin American
Language : Spanish
Default : No
Forced : No

Menu
00:00:00.000 : en: Chapter 1
00:01:12.281 : en:Chapter 2
00:04:22.137 : en:Chapter 3
00:08:45.108 : en:Chapter 4
00:12:48.726 : en:Chapter 5
00:15:23.881 : en:Chapter 6
00:17:51.362 : en:Chapter 7
00:21:21.197 : en:Chapter 8
00:27:30.774 : en:Chapter 9
00:31:11.244 : en:Chapter 10
00:36:55.964 : en:Chapter 11
00:42:42.059 : en:Chapter 12
00:44:46.976 : en:Chapter 13
00:52:24.183 : en:Chapter 14
00:54:21.008 : en:Chapter 15
01:01:34.858 : en:Chapter 16
01:06:00.999 : en:Chapter 17
01:08:42.243 : en:Chapter 18





A Christmas Carol (1938)


A Christmas Carol (1938)


A Christmas Carol (1938)


A Christmas Carol (1938)


A Christmas Carol (1938)