KIMAGURE ORANGE ROAD OVA (1989-1991)

KIMAGURE ORANGE ROAD OVA (1989-1991)

KIMAGURE ORANGE ROAD OVA (1989-1991)
BD-Remux | m2ts | 1920x1080 | H264@~30 Mbps | 8x ~ 25mn | 8x ~5.8 Gb
Japanese PCM@1536 Kbps | 2 channels | Subtitles: English
Genre: action, comedy, fantasy, high school, romance, school life, shounen, super power












01. OVA
02. OVA
03. OVA
04. OVA
05. OVA
06. OVA
07. OVA
08. OVA


General
Format : BDAV
Format/Info : Blu-ray Video
File size : 5.81 GiB
Duration : 25 min 7 s
Overall bit rate mode : Variable
Overall bit rate : 33.1 Mb/s
Maximum Overall bit rate : 48.0 Mb/s

Video
ID : 4113 (0x1011)
Menu ID : 1 (0x1)
Format : AVC
Format/Info : Advanced Video Codec
Format profile : High@L4.1
Format settings : CABAC / 3 Ref Frames
Format settings, CABAC : Yes
Format settings, RefFrames : 3 frames
Codec ID : 27
Duration : 25 min 7 s
Bit rate mode : Variable
Bit rate : 30.0 Mb/s
Maximum bit rate : 31.0 Mb/s
Width : 1 920 pixels
Height : 1 080 pixels
Display aspect ratio : 16:9
Frame rate : 23.976 (24000/1001) FPS
Color space : YUV
Chroma subsampling : 4:2:0
Bit depth : 8 bits
Scan type : Progressive
Bits/(Pixel*Frame) : 0.603
Stream size : 5.31 GiB (91%)
Writing library : x264 core 146 r2538 121396c
Encoding settings : cabac=1 / ref=4 / deblock=1:-1:-1 / analyse=0x3:0x133 / me=umh / subme=10 / psy=1 / psy_rd=1.00:0.15 / mixed_ref=1 / me_range=24 / chroma_me=1 / trellis=2 / 8x8dct=1 / cqm=0 / deadzone=21,11 / fast_pskip=1 / chroma_qp_offset=-3 / threads=12 / lookahead_threads=1 / sliced_threads=0 / slices=4 / nr=0 / decimate=1 / interlaced=0 / bluray_compat=1 / constrained_intra=0 / bframes=3 / b_pyramid=1 / b_adapt=2 / b_bias=0 / direct=3 / weightb=1 / open_gop=1 / weightp=1 / keyint=24 / keyint_min=1 / scenecut=40 / intra_refresh=0 / rc_lookahead=24 / rc=2pass / mbtree=1 / bitrate=30000 / ratetol=1.0 / qcomp=0.60 / qpmin=0 / qpmax=69 / qpstep=4 / cplxblur=20.0 / qblur=0.5 / vbv_maxrate=31000 / vbv_bufsize=30000 / nal_hrd=vbr / filler=0 / ip_ratio=1.40 / aq=1:1.00
Color range : Limited
Color primaries : BT.709
Transfer characteristics : BT.709
Matrix coefficients : BT.709

Audio
ID : 4352 (0x1100)
Menu ID : 1 (0x1)
Format : PCM
Format settings : Big / Signed
Muxing mode : Blu-ray
Codec ID : 128
Duration : 25 min 7 s
Bit rate mode : Constant
Bit rate : 1 536 kb/s
Channel(s) : 2 channels
Channel positions : Front: L R
Sampling rate : 48.0 kHz
Bit depth : 16 bits
Stream size : 276 MiB (5%)

Text
ID : 4608 (0x1200)
Menu ID : 1 (0x1)
Format : PGS
Codec ID : 144
Duration : 25 min 1 s
Delay relative to video : 2 s 44 ms


Screenshots

KIMAGURE ORANGE ROAD OVA (1989-1991)

KIMAGURE ORANGE ROAD OVA (1989-1991)

KIMAGURE ORANGE ROAD OVA (1989-1991)


My publications | Rss Channel