Argos Films - 17th Parallel: Vietnam in War (1968)

Argos Films - 17th Parallel: Vietnam in War (1968)

Argos Films - 17th Parallel: Vietnam in War (1968)
DVDRip | 720x480 | .MP4/AVC @ 2125 Kbps | 1 h 52 min | 1.81 GiB
Audio: French AAC 156 kbps, 2 channels | Subs: English, Dutch
Genre: Documentary | War

On the border of North and South Vietnam, civilians live underground and cultivate their land in the dead of night, farmers take up arms, and bombs fall like clockwork. Joris Ivens and Marceline Loridan's record of daily life in one of the most volatile regions of a war-torn, divided country is both a hazardous piece of first-hand journalism and a shattering work in its own right, simmering with barely repressed anger.

General
Complete name : 17th.Parallel.Vietnam.in.War.DVD.mp4
Format : MPEG-4
Format profile : Base Media / Version 2
Codec ID : mp42 (isom/iso2/avc1/mp41)
File size : 1.81 GiB
Duration : 1 h 52 min
Overall bit rate mode : Variable
Overall bit rate : 2 293 kb/s

Video
ID : 1
Format : AVC
Format/Info : Advanced Video Codec
Format profile : Main@L3.1
Format settings, CABAC : Yes
Format settings, ReFrames : 4 frames
Codec ID : avc1
Codec ID/Info : Advanced Video Coding
Duration : 1 h 52 min
Bit rate : 2 125 kb/s
Width : 720 pixels
Height : 480 pixels
Display aspect ratio : 4:3
Original display aspect ratio : 4:3
Frame rate mode : Variable
Frame rate : 23.976 (24000/1001) FPS
Minimum frame rate : 23.974 FPS
Maximum frame rate : 23.981 FPS
Color space : YUV
Chroma subsampling : 4:2:0
Bit depth : 8 bits
Scan type : Progressive
Bits/(Pixel*Frame) : 0.256
Stream size : 1.67 GiB (93%)
Encoding settings : cabac=1 / ref=2 / deblock=1:0:0 / analyse=0x1:0x111 / me=hex / subme=6 / psy=1 / psy_rd=1.00:0.00 / mixed_ref=1 / me_range=16 / chroma_me=1 / trellis=1 / 8x8dct=0 / cqm=0 / deadzone=21,11 / fast_pskip=1 / chroma_qp_offset=-2 / threads=12 / lookahead_threads=2 / sliced_threads=0 / nr=0 / decimate=1 / interlaced=0 / bluray_compat=0 / constrained_intra=0 / bframes=3 / b_pyramid=2 / b_adapt=1 / b_bias=0 / direct=1 / weightb=1 / open_gop=0 / weightp=1 / keyint=240 / keyint_min=24 / scenecut=40 / intra_refresh=0 / rc_lookahead=30 / rc=crf / mbtree=1 / crf=21.0 / qcomp=0.60 / qpmin=0 / qpmax=69 / qpstep=4 / vbv_maxrate=14000 / vbv_bufsize=14000 / crf_max=0.0 / nal_hrd=none / filler=0 / ip_ratio=1.40 / aq=1:1.00
Encoded date : UTC 2018-09-27 14:09:41
Tagged date : UTC 2018-09-27 14:09:41
Color range : Limited
Color primaries : BT.601 NTSC
Transfer characteristics : BT.709
Matrix coefficients : BT.601
Menus : 5

Audio
ID : 2
Format : AAC
Format/Info : Advanced Audio Codec
Format profile : LC
Codec ID : 40
Duration : 1 h 52 min
Bit rate mode : Variable
Bit rate : 156 kb/s
Channel(s) : 2 channels
Channel(s)_Original : 1 channel
Channel positions : Front: C
Sampling rate : 48.0 kHz
Frame rate : 46.875 FPS (1024 spf)
Compression mode : Lossy
Stream size : 126 MiB (7%)
Title : Mono / Mono
Language : French
Default : Yes
Alternate group : 1
Encoded date : UTC 2018-09-27 14:09:41
Tagged date : UTC 2018-09-27 14:09:41
Menus : 5

Text #1
ID : 3
Format : mp4s
Codec ID : E0
Duration : 1 h 52 min
Bit rate mode : Variable
Bit rate : 2 841 b/s
Stream size : 2.29 MiB (0%)
Language : Dutch
Default : Yes
Forced : No
Alternate group : 3
Encoded date : UTC 2018-09-27 14:09:41
Tagged date : UTC 2018-09-27 14:09:41
Menus : 5

Text #2
ID : 4
Format : mp4s
Codec ID : E0
Duration : 1 h 52 min
Bit rate mode : Variable
Bit rate : 2 644 b/s
Stream size : 2.13 MiB (0%)
Language : English
Default : No
Forced : No
Alternate group : 3
Encoded date : UTC 2018-09-27 14:09:41
Tagged date : UTC 2018-09-27 14:09:41
Menus : 5

Menu
ID : 5
Codec ID : text
Duration : 1 h 52 min
Language : English
Encoded date : UTC 2018-09-27 14:09:41
Tagged date : UTC 2018-09-27 14:09:41
Menu For : 1,2,3,4
00:00:00.000 : Chapter 1
00:01:36.763 : Chapter 2
00:02:08.670 : Chapter 3
00:03:15.946 : Chapter 4
00:10:24.749 : Chapter 5
00:13:59.380 : Chapter 6
00:18:55.968 : Chapter 7
00:23:14.101 : Chapter 8
00:26:23.582 : Chapter 9
00:31:13.288 : Chapter 10
00:33:54.533 : Chapter 11
00:34:54.301 : Chapter 12
00:36:18.051 : Chapter 13
00:40:59.707 : Chapter 14
00:43:22.892 : Chapter 15
00:46:28.911 : Chapter 16
00:50:05.920 : Chapter 17
00:52:30.939 : Chapter 18
00:56:28.760 : Chapter 19
01:05:03.942 : Chapter 20
01:09:44.138 : Chapter 21
01:15:52.173 : Chapter 22
01:30:35.639 : Chapter 23
01:34:24.742 : Chapter 24
01:38:34.534 : Chapter 25
01:43:42.675 : Chapter 26
01:48:45.102 : Chapter 27
01:50:33.836 : Chapter 28
Bit rate mode : VBR


Screenshots:

Argos Films - 17th Parallel: Vietnam in War (1968)

Argos Films - 17th Parallel: Vietnam in War (1968)

Argos Films - 17th Parallel: Vietnam in War (1968)

Argos Films - 17th Parallel: Vietnam in War (1968)